<ttFont>
<head>
    <!-- Most of this table will be recalculated by the compiler -->
    <tableVersion value="1.0"/>
    <fontRevision value="1.0"/>
    <checkSumAdjustment value="0x548074e6"/>
    <magicNumber value="0x5f0f3cf5"/>
    <flags value="00000000 00000000"/>
    <unitsPerEm value="2048"/>
    <created value="Tue Mar  9 11:55:31 1999"/>
    <modified value="Sun May  9 04:57:07 2010"/>
    <xMin value="-2"/>
    <yMin value="-200"/>
    <xMax value="1600"/>
    <yMax value="1802"/>
    <macStyle value="00000000 00000000"/>
    <lowestRecPPEM value="3"/>
    <fontDirectionHint value="2"/>
    <indexToLocFormat value="0"/>
    <glyphDataFormat value="0"/>
  </head>
    <TTGlyph name=".notdef" xMin="63" yMin="0" xMax="438" yMax="1051">
      <contour>
        <pt x="63" y="0" on="1"/>
        <pt x="63" y="1051" on="1"/>
        <pt x="438" y="1051" on="1"/>
        <pt x="438" y="0" on="1"/>
      </contour>
      <contour>
        <pt x="125" y="63" on="1"/>
        <pt x="375" y="63" on="1"/>
        <pt x="375" y="989" on="1"/>
        <pt x="125" y="989" on="1"/>
      </contour>
    </TTGlyph>
    <TTGlyph name="A" xMin="200" yMin="0" xMax="1400" yMax="1400">
      <contour>
        <pt x="200" y="1000" on="1"/>
        <pt x="400" y="1200" on="1"/>
        <pt x="600" y="1400" on="1"/>
        <pt x="1000" y="1400" on="1"/>
        <pt x="1200" y="1200" on="1"/>
        <pt x="1400" y="1000" on="1"/>
        <pt x="1400" y="0" on="1"/>
        <pt x="1000" y="0" on="1"/>
        <pt x="1000" y="600" on="1"/>
        <pt x="600" y="600" on="1"/>
        <pt x="600" y="0" on="1"/>
        <pt x="200" y="0" on="1"/>
      </contour>
      <contour>
        <pt x="600" y="1000" on="1"/>
        <pt x="600" y="800" on="1"/>
        <pt x="1000" y="800" on="1"/>
        <pt x="1000" y="1000" on="1"/>
      </contour>
    </TTGlyph>
    <TTGlyph name="AE" xMin="200" yMin="0" xMax="1400" yMax="1400">
      <contour>
        <pt x="200" y="1000" on="1"/>
        <pt x="200" y="1200" on="0"/>
        <pt x="400" y="1400" on="0"/>
        <pt x="600" y="1400" on="1"/>
        <pt x="1400" y="1400" on="1"/>
        <pt x="1400" y="1200" on="1"/>
        <pt x="1100" y="1200" on="1"/>
        <pt x="1100" y="800" on="1"/>
        <pt x="1400" y="800" on="1"/>
        <pt x="1400" y="600" on="1"/>
        <pt x="1100" y="600" on="1"/>
        <pt x="1100" y="200" on="1"/>
        <pt x="1400" y="200" on="1"/>
        <pt x="1400" y="0" on="1"/>
        <pt x="700" y="0" on="1"/>
        <pt x="700" y="600" on="1"/>
        <pt x="500" y="600" on="1"/>
        <pt x="500" y="0" on="1"/>
        <pt x="200" y="0" on="1"/>
      </contour>
      <contour>
        <pt x="500" y="1200" on="0"/>
        <pt x="500" y="1000" on="1"/>
        <pt x="500" y="800" on="1"/>
        <pt x="700" y="800" on="1"/>
        <pt x="700" y="1200" on="1"/>
      </contour>
    </TTGlyph>
    <TTGlyph name="Aacute" xMin="200" yMin="0" xMax="1400" yMax="1800">
      <contour>
        <pt x="800" y="1600" on="1"/>
        <pt x="600" y="1600" on="1"/>
        <pt x="800" y="1800" on="1"/>
        <pt x="1000" y="1800" on="1"/>
      </contour>
      <contour>
        <pt x="200" y="1000" on="1"/>
        <pt x="600" y="1400" on="1"/>
        <pt x="1000" y="1400" on="1"/>
        <pt x="1400" y="1000" on="1"/>
        <pt x="1400" y="0" on="1"/>
        <pt x="1000" y="0" on="1"/>
        <pt x="1000" y="600" on="1"/>
        <pt x="600" y="600" on="1"/>
        <pt x="600" y="0" on="1"/>
        <pt x="200" y="0" on="1"/>
      </contour>
      <contour>
        <pt x="600" y="1000" on="1"/>
        <pt x="600" y="800" on="1"/>
        <pt x="1000" y="800" on="1"/>
        <pt x="1000" y="1000" on="1"/>
      </contour>
    </TTGlyph>
    <TTGlyph name="Acircumflex" xMin="200" yMin="0" xMax="1400" yMax="1800">
      <contour>
        <pt x="900" y="1600" on="1"/>
        <pt x="800" y="1700" on="1"/>
        <pt x="700" y="1600" on="1"/>
        <pt x="500" y="1600" on="1"/>
        <pt x="700" y="1800" on="1"/>
        <pt x="900" y="1800" on="1"/>
        <pt x="1100" y="1600" on="1"/>
      </contour>
      <contour>
        <pt x="200" y="1000" on="1"/>
        <pt x="600" y="1400" on="1"/>
        <pt x="1000" y="1400" on="1"/>
        <pt x="1400" y="1000" on="1"/>
        <pt x="1400" y="0" on="1"/>
        <pt x="1000" y="0" on="1"/>
        <pt x="1000" y="600" on="1"/>
        <pt x="600" y="600" on="1"/>
        <pt x="600" y="0" on="1"/>
        <pt x="200" y="0" on="1"/>
      </contour>
      <contour>
        <pt x="600" y="1000" on="1"/>
        <pt x="600" y="800" on="1"/>
        <pt x="1000" y="800" on="1"/>
        <pt x="1000" y="1000" on="1"/>
      </contour>
    </TTGlyph>
    <TTGlyph name="Adieresis" xMin="200" yMin="0" xMax="1400" yMax="1800">
      <contour>
        <pt x="500" y="1800" on="1"/>
        <pt x="700" y="1800" on="1"/>
        <pt x="700" y="1600" on="1"/>
        <pt x="500" y="1600" on="1"/>
      </contour>
      <contour>
        <pt x="900" y="1800" on="1"/>
        <pt x="1100" y="1800" on="1"/>
        <pt x="1100" y="1600" on="1"/>
        <pt x="900" y="1600" on="1"/>
      </contour>
      <contour>
        <pt x="200" y="1000" on="1"/>
        <pt x="600" y="1400" on="1"/>
        <pt x="1000" y="1400" on="1"/>
        <pt x="1400" y="1000" on="1"/>
        <pt x="1400" y="0" on="1"/>
        <pt x="1000" y="0" on="1"/>
        <pt x="1000" y="600" on="1"/>
        <pt x="600" y="600" on="1"/>
        <pt x="600" y="0" on="1"/>
        <pt x="200" y="0" on="1"/>
      </contour>
      <contour>
        <pt x="600" y="1000" on="1"/>
        <pt x="600" y="800" on="1"/>
        <pt x="1000" y="800" on="1"/>
        <pt x="1000" y="1000" on="1"/>
      </contour>
    </TTGlyph>
    <TTGlyph name="Agrave" xMin="200" yMin="0" xMax="1400" yMax="1800">
      <contour>
        <pt x="600" y="1800" on="1"/>
        <pt x="800" y="1800" on="1"/>
        <pt x="1000" y="1600" on="1"/>
        <pt x="800" y="1600" on="1"/>
      </contour>
      <contour>
        <pt x="200" y="1000" on="1"/>
        <pt x="600" y="1400" on="1"/>
        <pt x="1000" y="1400" on="1"/>
        <pt x="1400" y="1000" on="1"/>
        <pt x="1400" y="0" on="1"/>
        <pt x="1000" y="0" on="1"/>
        <pt x="1000" y="600" on="1"/>
        <pt x="600" y="600" on="1"/>
        <pt x="600" y="0" on="1"/>
        <pt x="200" y="0" on="1"/>
      </contour>
      <contour>
        <pt x="600" y="1000" on="1"/>
        <pt x="600" y="800" on="1"/>
        <pt x="1000" y="800" on="1"/>
        <pt x="1000" y="1000" on="1"/>
      </contour>
    </TTGlyph>
    <TTGlyph name="Aring" xMin="200" yMin="0" xMax="1400" yMax="1800">
      <contour>
        <pt x="700" y="1800" on="1"/>
        <pt x="900" y="1800" on="1"/>
        <pt x="900" y="1600" on="1"/>
        <pt x="700" y="1600" on="1"/>
      </contour>
      <contour>
        <pt x="200" y="1000" on="1"/>
        <pt x="600" y="1400" on="1"/>
        <pt x="1000" y="1400" on="1"/>
        <pt x="1400" y="1000" on="1"/>
        <pt x="1400" y="0" on="1"/>
        <pt x="1000" y="0" on="1"/>
        <pt x="1000" y="600" on="1"/>
        <pt x="600" y="600" on="1"/>
        <pt x="600" y="0" on="1"/>
        <pt x="200" y="0" on="1"/>
      </contour>
      <contour>
        <pt x="600" y="1000" on="1"/>
        <pt x="600" y="800" on="1"/>
        <pt x="1000" y="800" on="1"/>
        <pt x="1000" y="1000" on="1"/>
      </contour>
    </TTGlyph>
    <TTGlyph name="Atilde" xMin="200" yMin="0" xMax="1400" yMax="1800">
      <contour>
        <pt x="200" y="1000" on="1"/>
        <pt x="600" y="1400" on="1"/>
        <pt x="1000" y="1400" on="1"/>
        <pt x="1400" y="1000" on="1"/>
        <pt x="1400" y="0" on="1"/>
        <pt x="1000" y="0" on="1"/>
        <pt x="1000" y="600" on="1"/>
        <pt x="600" y="600" on="1"/>
        <pt x="600" y="0" on="1"/>
        <pt x="200" y="0" on="1"/>
      </contour>
      <contour>
        <pt x="600" y="1000" on="1"/>
        <pt x="600" y="800" on="1"/>
        <pt x="1000" y="800" on="1"/>
        <pt x="1000" y="1000" on="1"/>
      </contour>
      <contour>
        <pt x="1000" y="1800" on="1"/>
        <pt x="1200" y="1600" on="1"/>
        <pt x="1000" y="1600" on="1"/>
        <pt x="900" y="1700" on="1"/>
        <pt x="800" y="1600" on="1"/>
        <pt x="600" y="1600" on="1"/>
        <pt x="400" y="1800" on="1"/>
        <pt x="600" y="1800" on="1"/>
        <pt x="700" y="1700" on="1"/>
        <pt x="800" y="1800" on="1"/>
      </contour>
    </TTGlyph>
    <TTGlyph name="B" xMin="200" yMin="0" xMax="1400" yMax="1400">
      <contour>
        <pt x="200" y="1400" on="1"/>
        <pt x="1200" y="1400" on="1"/>
        <pt x="1400" y="1400" on="0"/>
        <pt x="1400" y="1200" on="1"/>
        <pt x="1400" y="900" on="1"/>
        <pt x="1400" y="700" on="0"/>
        <pt x="1200" y="700" on="1"/>
        <pt x="1400" y="700" on="0"/>
        <pt x="1400" y="500" on="1"/>
        <pt x="1400" y="200" on="1"/>
        <pt x="1400" y="0" on="0"/>
        <pt x="1200" y="0" on="1"/>
        <pt x="200" y="0" on="1"/>
      </contour>
      <contour>
        <pt x="600" y="600" on="1"/>
        <pt x="600" y="200" on="1"/>
        <pt x="1000" y="200" on="1"/>
        <pt x="1000" y="600" on="1"/>
      </contour>
      <contour>
        <pt x="600" y="1200" on="1"/>
        <pt x="600" y="800" on="1"/>
        <pt x="1000" y="800" on="1"/>
        <pt x="1000" y="1200" on="1"/>
      </contour>
    </TTGlyph>
    <TTGlyph name="C" xMin="200" yMin="0" xMax="1400" yMax="1400">
      <contour>
        <pt x="200" y="1200" on="1"/>
        <pt x="200" y="1400" on="0"/>
        <pt x="400" y="1400" on="1"/>
        <pt x="1200" y="1400" on="1"/>
        <pt x="1400" y="1400" on="0"/>
        <pt x="1400" y="1200" on="1"/>
        <pt x="1400" y="1000" on="1"/>
        <pt x="1000" y="1000" on="1"/>
        <pt x="1000" y="1200" on="1"/>
        <pt x="600" y="1200" on="1"/>
        <pt x="600" y="200" on="1"/>
        <pt x="1000" y="200" on="1"/>
        <pt x="1000" y="400" on="1"/>
        <pt x="1400" y="400" on="1"/>
        <pt x="1400" y="200" on="1"/>
        <pt x="1400" y="0" on="0"/>
        <pt x="1200" y="0" on="1"/>
        <pt x="400" y="0" on="1"/>
        <pt x="200" y="0" on="0"/>
        <pt x="200" y="200" on="1"/>
      </contour>
    </TTGlyph>
    <TTGlyph name="Ccedilla" xMin="200" yMin="-200" xMax="1400" yMax="1400">
      <contour>
        <pt x="800" y="-200" on="1"/>
        <pt x="400" y="-200" on="1"/>
        <pt x="600" y="0" on="1"/>
        <pt x="1000" y="0" on="1"/>
      </contour>
      <contour>
        <pt x="200" y="1200" on="1"/>
        <pt x="200" y="1400" on="0"/>
        <pt x="400" y="1400" on="1"/>
        <pt x="1200" y="1400" on="1"/>
        <pt x="1400" y="1400" on="0"/>
        <pt x="1400" y="1200" on="1"/>
        <pt x="1400" y="1000" on="1"/>
        <pt x="1000" y="1000" on="1"/>
        <pt x="1000" y="1200" on="1"/>
        <pt x="600" y="1200" on="1"/>
        <pt x="600" y="200" on="1"/>
        <pt x="1000" y="200" on="1"/>
        <pt x="1000" y="400" on="1"/>
        <pt x="1400" y="400" on="1"/>
        <pt x="1400" y="200" on="1"/>
        <pt x="1400" y="0" on="0"/>
        <pt x="1200" y="0" on="1"/>
        <pt x="400" y="0" on="1"/>
        <pt x="200" y="0" on="0"/>
        <pt x="200" y="200" on="1"/>
      </contour>
    </TTGlyph>
    <TTGlyph name="D" xMin="200" yMin="0" xMax="1400" yMax="1400">
      <contour>
        <pt x="200" y="1400" on="1"/>
        <pt x="1000" y="1400" on="1"/>
        <pt x="1200" y="1400" on="0"/>
        <pt x="1400" y="1200" on="0"/>
        <pt x="1400" y="1000" on="1"/>
        <pt x="1400" y="400" on="1"/>
        <pt x="1400" y="200" on="0"/>
        <pt x="1200" y="0" on="0"/>
        <pt x="1000" y="0" on="1"/>
        <pt x="200" y="0" on="1"/>
      </contour>
      <contour>
        <pt x="600" y="1200" on="1"/>
        <pt x="600" y="200" on="1"/>
        <pt x="800" y="200" on="1"/>
        <pt x="1000" y="200" on="0"/>
        <pt x="1000" y="400" on="1"/>
        <pt x="1000" y="1000" on="1"/>
        <pt x="1000" y="1200" on="0"/>
        <pt x="800" y="1200" on="1"/>
      </contour>
    </TTGlyph>
    <TTGlyph name="E" xMin="200" yMin="0" xMax="1400" yMax="1400">
      <contour>
        <pt x="200" y="1400" on="1"/>
        <pt x="1400" y="1400" on="1"/>
        <pt x="1400" y="1200" on="1"/>
        <pt x="600" y="1200" on="1"/>
        <pt x="600" y="800" on="1"/>
        <pt x="1000" y="800" on="1"/>
        <pt x="1000" y="600" on="1"/>
        <pt x="600" y="600" on="1"/>
        <pt x="600" y="200" on="1"/>
        <pt x="1400" y="200" on="1"/>
        <pt x="1400" y="0" on="1"/>
        <pt x="200" y="0" on="1"/>
      </contour>
    </TTGlyph>
    <TTGlyph name="Eacute" xMin="200" yMin="0" xMax="1400" yMax="1800">
      <contour>
        <pt x="800" y="1600" on="1"/>
        <pt x="600" y="1600" on="1"/>
        <pt x="800" y="1800" on="1"/>
        <pt x="1000" y="1800" on="1"/>
      </contour>
      <contour>
        <pt x="200" y="1400" on="1"/>
        <pt x="1400" y="1400" on="1"/>
        <pt x="1400" y="1200" on="1"/>
        <pt x="600" y="1200" on="1"/>
        <pt x="600" y="800" on="1"/>
        <pt x="1000" y="800" on="1"/>
        <pt x="1000" y="600" on="1"/>
        <pt x="600" y="600" on="1"/>
        <pt x="600" y="200" on="1"/>
        <pt x="1400" y="200" on="1"/>
        <pt x="1400" y="0" on="1"/>
        <pt x="200" y="0" on="1"/>
      </contour>
    </TTGlyph>
    <TTGlyph name="Ecircumflex" xMin="200" yMin="0" xMax="1400" yMax="1800">
      <contour>
        <pt x="900" y="1600" on="1"/>
        <pt x="800" y="1700" on="1"/>
        <pt x="700" y="1600" on="1"/>
        <pt x="500" y="1600" on="1"/>
        <pt x="700" y="1800" on="1"/>
        <pt x="900" y="1800" on="1"/>
        <pt x="1100" y="1600" on="1"/>
      </contour>
      <contour>
        <pt x="200" y="1400" on="1"/>
        <pt x="1400" y="1400" on="1"/>
        <pt x="1400" y="1200" on="1"/>
        <pt x="600" y="1200" on="1"/>
        <pt x="600" y="800" on="1"/>
        <pt x="1000" y="800" on="1"/>
        <pt x="1000" y="600" on="1"/>
        <pt x="600" y="600" on="1"/>
        <pt x="600" y="200" on="1"/>
        <pt x="1400" y="200" on="1"/>
        <pt x="1400" y="0" on="1"/>
        <pt x="200" y="0" on="1"/>
      </contour>
    </TTGlyph>
    <TTGlyph name="Edieresis" xMin="200" yMin="0" xMax="1400" yMax="1796">
      <contour>
        <pt x="404" y="1796" on="1"/>
        <pt x="600" y="1796" on="1"/>
        <pt x="600" y="1600" on="1"/>
        <pt x="404" y="1600" on="1"/>
      </contour>
      <contour>
        <pt x="1004" y="1796" on="1"/>
        <pt x="1200" y="1796" on="1"/>
        <pt x="1200" y="1600" on="1"/>
        <pt x="1004" y="1600" on="1"/>
      </contour>
      <contour>
        <pt x="200" y="1400" on="1"/>
        <pt x="1400" y="1400" on="1"/>
        <pt x="1400" y="1200" on="1"/>
        <pt x="600" y="1200" on="1"/>
        <pt x="600" y="800" on="1"/>
        <pt x="1000" y="800" on="1"/>
        <pt x="1000" y="600" on="1"/>
        <pt x="600" y="600" on="1"/>
        <pt x="600" y="200" on="1"/>
        <pt x="1400" y="200" on="1"/>
        <pt x="1400" y="0" on="1"/>
        <pt x="200" y="0" on="1"/>
      </contour>
    </TTGlyph>
    <TTGlyph name="Egrave" xMin="200" yMin="0" xMax="1400" yMax="1800">
      <contour>
        <pt x="600" y="1800" on="1"/>
        <pt x="800" y="1800" on="1"/>
        <pt x="1000" y="1600" on="1"/>
        <pt x="800" y="1600" on="1"/>
      </contour>
      <contour>
        <pt x="200" y="1400" on="1"/>
        <pt x="1400" y="1400" on="1"/>
        <pt x="1400" y="1200" on="1"/>
        <pt x="600" y="1200" on="1"/>
        <pt x="600" y="800" on="1"/>
        <pt x="1000" y="800" on="1"/>
        <pt x="1000" y="600" on="1"/>
        <pt x="600" y="600" on="1"/>
        <pt x="600" y="200" on="1"/>
        <pt x="1400" y="200" on="1"/>
        <pt x="1400" y="0" on="1"/>
        <pt x="200" y="0" on="1"/>
      </contour>
    </TTGlyph>
    <TTGlyph name="F" xMin="200" yMin="0" xMax="1400" yMax="1400">
      <contour>
        <pt x="200" y="1400" on="1"/>
        <pt x="1400" y="1400" on="1"/>
        <pt x="1400" y="1200" on="1"/>
        <pt x="600" y="1200" on="1"/>
        <pt x="600" y="800" on="1"/>
        <pt x="1000" y="800" on="1"/>
        <pt x="1000" y="600" on="1"/>
        <pt x="600" y="600" on="1"/>
        <pt x="600" y="0" on="1"/>
        <pt x="200" y="0" on="1"/>
      </contour>
    </TTGlyph>
    <TTGlyph name="G" xMin="200" yMin="0" xMax="1400" yMax="1400">
      <contour>
        <pt x="200" y="1200" on="1"/>
        <pt x="200" y="1400" on="0"/>
        <pt x="400" y="1400" on="1"/>
        <pt x="1200" y="1400" on="1"/>
        <pt x="1400" y="1400" on="0"/>
        <pt x="1400" y="1200" on="1"/>
        <pt x="1400" y="1000" on="1"/>
        <pt x="1000" y="1000" on="1"/>
        <pt x="1000" y="1200" on="1"/>
        <pt x="600" y="1200" on="1"/>
        <pt x="600" y="200" on="1"/>
        <pt x="1000" y="200" on="1"/>
        <pt x="1000" y="600" on="1"/>
        <pt x="800" y="600" on="1"/>
        <pt x="800" y="800" on="1"/>
        <pt x="1400" y="800" on="1"/>
        <pt x="1400" y="200" on="1"/>
        <pt x="1400" y="0" on="0"/>
        <pt x="1200" y="0" on="1"/>
        <pt x="400" y="0" on="1"/>
        <pt x="200" y="0" on="0"/>
        <pt x="200" y="200" on="1"/>
      </contour>
    </TTGlyph>
    <TTGlyph name="H" xMin="200" yMin="0" xMax="1400" yMax="1400">
      <contour>
        <pt x="200" y="1400" on="1"/>
        <pt x="600" y="1400" on="1"/>
        <pt x="600" y="800" on="1"/>
        <pt x="1000" y="800" on="1"/>
        <pt x="1000" y="1400" on="1"/>
        <pt x="1400" y="1400" on="1"/>
        <pt x="1400" y="0" on="1"/>
        <pt x="1000" y="0" on="1"/>
        <pt x="1000" y="600" on="1"/>
        <pt x="600" y="600" on="1"/>
        <pt x="600" y="0" on="1"/>
        <pt x="200" y="0" on="1"/>
      </contour>
    </TTGlyph>
    <TTGlyph name="I" xMin="400" yMin="0" xMax="1200" yMax="1400">
      <contour>
        <pt x="600" y="1200" on="1"/>
        <pt x="400" y="1200" on="1"/>
        <pt x="400" y="1400" on="1"/>
        <pt x="1200" y="1400" on="1"/>
        <pt x="1200" y="1200" on="1"/>
        <pt x="1000" y="1200" on="1"/>
        <pt x="1000" y="200" on="1"/>
        <pt x="1200" y="200" on="1"/>
        <pt x="1200" y="0" on="1"/>
        <pt x="400" y="0" on="1"/>
        <pt x="400" y="200" on="1"/>
        <pt x="600" y="200" on="1"/>
      </contour>
    </TTGlyph>
    <TTGlyph name="Iacute" xMin="400" yMin="0" xMax="1200" yMax="1800">
      <contour>
        <pt x="600" y="1200" on="1"/>
        <pt x="400" y="1200" on="1"/>
        <pt x="400" y="1400" on="1"/>
        <pt x="1200" y="1400" on="1"/>
        <pt x="1200" y="1200" on="1"/>
        <pt x="1000" y="1200" on="1"/>
        <pt x="1000" y="200" on="1"/>
        <pt x="1200" y="200" on="1"/>
        <pt x="1200" y="0" on="1"/>
        <pt x="400" y="0" on="1"/>
        <pt x="400" y="200" on="1"/>
        <pt x="600" y="200" on="1"/>
      </contour>
      <contour>
        <pt x="800" y="1600" on="1"/>
        <pt x="600" y="1600" on="1"/>
        <pt x="800" y="1800" on="1"/>
        <pt x="1000" y="1800" on="1"/>
      </contour>
    </TTGlyph>
    <TTGlyph name="Icircumflex" xMin="400" yMin="0" xMax="1200" yMax="1800">
      <contour>
        <pt x="900" y="1600" on="1"/>
        <pt x="800" y="1700" on="1"/>
        <pt x="700" y="1600" on="1"/>
        <pt x="500" y="1600" on="1"/>
        <pt x="700" y="1800" on="1"/>
        <pt x="900" y="1800" on="1"/>
        <pt x="1100" y="1600" on="1"/>
      </contour>
      <contour>
        <pt x="600" y="1200" on="1"/>
        <pt x="400" y="1200" on="1"/>
        <pt x="400" y="1400" on="1"/>
        <pt x="1200" y="1400" on="1"/>
        <pt x="1200" y="1200" on="1"/>
        <pt x="1000" y="1200" on="1"/>
        <pt x="1000" y="200" on="1"/>
        <pt x="1200" y="200" on="1"/>
        <pt x="1200" y="0" on="1"/>
        <pt x="400" y="0" on="1"/>
        <pt x="400" y="200" on="1"/>
        <pt x="600" y="200" on="1"/>
      </contour>
    </TTGlyph>
    <TTGlyph name="Idieresis" xMin="400" yMin="0" xMax="1200" yMax="1800">
      <contour>
        <pt x="508" y="1796" on="1"/>
        <pt x="704" y="1796" on="1"/>
        <pt x="704" y="1600" on="1"/>
        <pt x="508" y="1600" on="1"/>
      </contour>
      <contour>
        <pt x="904" y="1800" on="1"/>
        <pt x="1100" y="1800" on="1"/>
        <pt x="1100" y="1604" on="1"/>
        <pt x="904" y="1604" on="1"/>
      </contour>
      <contour>
        <pt x="600" y="1200" on="1"/>
        <pt x="400" y="1200" on="1"/>
        <pt x="400" y="1400" on="1"/>
        <pt x="1200" y="1400" on="1"/>
        <pt x="1200" y="1200" on="1"/>
        <pt x="1000" y="1200" on="1"/>
        <pt x="1000" y="200" on="1"/>
        <pt x="1200" y="200" on="1"/>
        <pt x="1200" y="0" on="1"/>
        <pt x="400" y="0" on="1"/>
        <pt x="400" y="200" on="1"/>
        <pt x="600" y="200" on="1"/>
      </contour>
    </TTGlyph>
    <TTGlyph name="Igrave" xMin="400" yMin="0" xMax="1200" yMax="1800">
      <contour>
        <pt x="600" y="1200" on="1"/>
        <pt x="400" y="1200" on="1"/>
        <pt x="400" y="1400" on="1"/>
        <pt x="1200" y="1400" on="1"/>
        <pt x="1200" y="1200" on="1"/>
        <pt x="1000" y="1200" on="1"/>
        <pt x="1000" y="200" on="1"/>
        <pt x="1200" y="200" on="1"/>
        <pt x="1200" y="0" on="1"/>
        <pt x="400" y="0" on="1"/>
        <pt x="400" y="200" on="1"/>
        <pt x="600" y="200" on="1"/>
      </contour>
      <contour>
        <pt x="600" y="1800" on="1"/>
        <pt x="800" y="1800" on="1"/>
        <pt x="1000" y="1600" on="1"/>
        <pt x="800" y="1600" on="1"/>
      </contour>
    </TTGlyph>
    <TTGlyph name="J" xMin="200" yMin="0" xMax="1400" yMax="1400">
      <contour>
        <pt x="200" y="400" on="1"/>
        <pt x="600" y="400" on="1"/>
        <pt x="600" y="200" on="1"/>
        <pt x="800" y="200" on="1"/>
        <pt x="800" y="1200" on="1"/>
        <pt x="600" y="1200" on="1"/>
        <pt x="600" y="1400" on="1"/>
        <pt x="1400" y="1400" on="1"/>
        <pt x="1400" y="1200" on="1"/>
        <pt x="1200" y="1200" on="1"/>
        <pt x="1200" y="200" on="1"/>
        <pt x="1200" y="0" on="0"/>
        <pt x="1000" y="0" on="1"/>
        <pt x="400" y="0" on="1"/>
        <pt x="200" y="0" on="0"/>
        <pt x="200" y="200" on="1"/>
      </contour>
    </TTGlyph>
    <TTGlyph name="K" xMin="200" yMin="0" xMax="1400" yMax="1400">
      <contour>
        <pt x="200" y="1400" on="1"/>
        <pt x="600" y="1400" on="1"/>
        <pt x="600" y="1000" on="1"/>
        <pt x="700" y="1000" on="1"/>
        <pt x="1100" y="1400" on="1"/>
        <pt x="1400" y="1400" on="1"/>
        <pt x="1400" y="1200" on="1"/>
        <pt x="1300" y="1200" on="1"/>
        <pt x="800" y="700" on="1"/>
        <pt x="1300" y="200" on="1"/>
        <pt x="1400" y="200" on="1"/>
        <pt x="1400" y="0" on="1"/>
        <pt x="1100" y="0" on="1"/>
        <pt x="700" y="400" on="1"/>
        <pt x="600" y="400" on="1"/>
        <pt x="600" y="0" on="1"/>
        <pt x="200" y="0" on="1"/>
      </contour>
    </TTGlyph>
    <TTGlyph name="L" xMin="200" yMin="0" xMax="1400" yMax="1400">
      <contour>
        <pt x="200" y="1400" on="1"/>
        <pt x="600" y="1400" on="1"/>
        <pt x="600" y="200" on="1"/>
        <pt x="1400" y="200" on="1"/>
        <pt x="1400" y="0" on="1"/>
        <pt x="200" y="0" on="1"/>
      </contour>
    </TTGlyph>
    <TTGlyph name="M" xMin="200" yMin="0" xMax="1600" yMax="1400">
      <contour>
        <pt x="200" y="1400" on="1"/>
        <pt x="400" y="1400" on="1"/>
        <pt x="600" y="1200" on="1"/>
        <pt x="800" y="1000" on="1"/>
        <pt x="1000" y="1000" on="1"/>
        <pt x="1200" y="1200" on="1"/>
        <pt x="1400" y="1400" on="1"/>
        <pt x="1600" y="1400" on="1"/>
        <pt x="1600" y="0" on="1"/>
        <pt x="1200" y="0" on="1"/>
        <pt x="1200" y="800" on="1"/>
        <pt x="1000" y="600" on="1"/>
        <pt x="800" y="600" on="1"/>
        <pt x="600" y="800" on="1"/>
        <pt x="600" y="0" on="1"/>
        <pt x="200" y="0" on="1"/>
      </contour>
    </TTGlyph>
    <TTGlyph name="N" xMin="200" yMin="0" xMax="1400" yMax="1400">
      <contour>
        <pt x="200" y="1400" on="1"/>
        <pt x="600" y="1400" on="1"/>
        <pt x="600" y="1200" on="1"/>
        <pt x="800" y="1000" on="1"/>
        <pt x="1000" y="800" on="1"/>
        <pt x="1000" y="1400" on="1"/>
        <pt x="1400" y="1400" on="1"/>
        <pt x="1400" y="0" on="1"/>
        <pt x="1000" y="0" on="1"/>
        <pt x="1000" y="400" on="1"/>
        <pt x="800" y="600" on="1"/>
        <pt x="600" y="800" on="1"/>
        <pt x="600" y="0" on="1"/>
        <pt x="200" y="0" on="1"/>
      </contour>
    </TTGlyph>
    <TTGlyph name="Ntilde" xMin="200" yMin="0" xMax="1400" yMax="1800">
      <contour>
        <pt x="200" y="1400" on="1"/>
        <pt x="600" y="1400" on="1"/>
        <pt x="600" y="1200" on="1"/>
        <pt x="1000" y="800" on="1"/>
        <pt x="1000" y="1400" on="1"/>
        <pt x="1400" y="1400" on="1"/>
        <pt x="1400" y="0" on="1"/>
        <pt x="1000" y="0" on="1"/>
        <pt x="1000" y="400" on="1"/>
        <pt x="600" y="800" on="1"/>
        <pt x="600" y="0" on="1"/>
        <pt x="200" y="0" on="1"/>
      </contour>
      <contour>
        <pt x="1000" y="1800" on="1"/>
        <pt x="1200" y="1600" on="1"/>
        <pt x="1000" y="1600" on="1"/>
        <pt x="900" y="1700" on="1"/>
        <pt x="800" y="1600" on="1"/>
        <pt x="600" y="1600" on="1"/>
        <pt x="400" y="1800" on="1"/>
        <pt x="600" y="1800" on="1"/>
        <pt x="700" y="1700" on="1"/>
        <pt x="800" y="1800" on="1"/>
      </contour>
    </TTGlyph>
    <TTGlyph name="O" xMin="200" yMin="0" xMax="1400" yMax="1400">
      <contour>
        <pt x="200" y="1200" on="1"/>
        <pt x="200" y="1400" on="0"/>
        <pt x="400" y="1400" on="1"/>
        <pt x="1200" y="1400" on="1"/>
        <pt x="1400" y="1400" on="0"/>
        <pt x="1400" y="1200" on="1"/>
        <pt x="1400" y="200" on="1"/>
        <pt x="1400" y="0" on="0"/>
        <pt x="1200" y="0" on="1"/>
        <pt x="400" y="0" on="1"/>
        <pt x="200" y="0" on="0"/>
        <pt x="200" y="200" on="1"/>
      </contour>
      <contour>
        <pt x="600" y="1200" on="1"/>
        <pt x="600" y="200" on="1"/>
        <pt x="1000" y="200" on="1"/>
        <pt x="1000" y="1200" on="1"/>
      </contour>
    </TTGlyph>
    <TTGlyph name="OE" xMin="0" yMin="0" xMax="1400" yMax="1400">
      <contour>
        <pt x="0" y="1200" on="1"/>
        <pt x="0" y="1400" on="0"/>
        <pt x="200" y="1400" on="1"/>
        <pt x="1400" y="1400" on="1"/>
        <pt x="1400" y="1200" on="1"/>
        <pt x="1000" y="1200" on="1"/>
        <pt x="1000" y="800" on="1"/>
        <pt x="1400" y="800" on="1"/>
        <pt x="1400" y="600" on="1"/>
        <pt x="1000" y="600" on="1"/>
        <pt x="1000" y="200" on="1"/>
        <pt x="1400" y="200" on="1"/>
        <pt x="1400" y="0" on="1"/>
        <pt x="200" y="0" on="1"/>
        <pt x="0" y="0" on="0"/>
        <pt x="0" y="200" on="1"/>
      </contour>
      <contour>
        <pt x="300" y="1200" on="1"/>
        <pt x="300" y="200" on="1"/>
        <pt x="600" y="200" on="1"/>
        <pt x="600" y="1200" on="1"/>
      </contour>
    </TTGlyph>
    <TTGlyph name="Oacute" xMin="200" yMin="0" xMax="1400" yMax="1800">
      <contour>
        <pt x="800" y="1600" on="1"/>
        <pt x="600" y="1600" on="1"/>
        <pt x="800" y="1800" on="1"/>
        <pt x="1000" y="1800" on="1"/>
      </contour>
      <contour>
        <pt x="200" y="1200" on="1"/>
        <pt x="200" y="1400" on="0"/>
        <pt x="400" y="1400" on="1"/>
        <pt x="1200" y="1400" on="1"/>
        <pt x="1400" y="1400" on="0"/>
        <pt x="1400" y="1200" on="1"/>
        <pt x="1400" y="200" on="1"/>
        <pt x="1400" y="0" on="0"/>
        <pt x="1200" y="0" on="1"/>
        <pt x="400" y="0" on="1"/>
        <pt x="200" y="0" on="0"/>
        <pt x="200" y="200" on="1"/>
      </contour>
      <contour>
        <pt x="600" y="1200" on="1"/>
        <pt x="600" y="200" on="1"/>
        <pt x="1000" y="200" on="1"/>
        <pt x="1000" y="1200" on="1"/>
      </contour>
    </TTGlyph>
    <TTGlyph name="Ocircumflex" xMin="200" yMin="0" xMax="1400" yMax="1800">
      <contour>
        <pt x="900" y="1600" on="1"/>
        <pt x="800" y="1700" on="1"/>
        <pt x="700" y="1600" on="1"/>
        <pt x="500" y="1600" on="1"/>
        <pt x="700" y="1800" on="1"/>
        <pt x="900" y="1800" on="1"/>
        <pt x="1100" y="1600" on="1"/>
      </contour>
      <contour>
        <pt x="600" y="1200" on="1"/>
        <pt x="600" y="200" on="1"/>
        <pt x="1000" y="200" on="1"/>
        <pt x="1000" y="1200" on="1"/>
      </contour>
      <contour>
        <pt x="200" y="1200" on="1"/>
        <pt x="200" y="1400" on="0"/>
        <pt x="400" y="1400" on="1"/>
        <pt x="1200" y="1400" on="1"/>
        <pt x="1400" y="1400" on="0"/>
        <pt x="1400" y="1200" on="1"/>
        <pt x="1400" y="200" on="1"/>
        <pt x="1400" y="0" on="0"/>
        <pt x="1200" y="0" on="1"/>
        <pt x="400" y="0" on="1"/>
        <pt x="200" y="0" on="0"/>
        <pt x="200" y="200" on="1"/>
      </contour>
    </TTGlyph>
    <TTGlyph name="Odieresis" xMin="200" yMin="0" xMax="1400" yMax="1796">
      <contour>
        <pt x="504" y="1796" on="1"/>
        <pt x="700" y="1796" on="1"/>
        <pt x="700" y="1600" on="1"/>
        <pt x="504" y="1600" on="1"/>
      </contour>
      <contour>
        <pt x="904" y="1796" on="1"/>
        <pt x="1100" y="1796" on="1"/>
        <pt x="1100" y="1600" on="1"/>
        <pt x="904" y="1600" on="1"/>
      </contour>
      <contour>
        <pt x="600" y="1200" on="1"/>
        <pt x="600" y="200" on="1"/>
        <pt x="1000" y="200" on="1"/>
        <pt x="1000" y="1200" on="1"/>
      </contour>
      <contour>
        <pt x="200" y="1200" on="1"/>
        <pt x="200" y="1400" on="0"/>
        <pt x="400" y="1400" on="1"/>
        <pt x="1200" y="1400" on="1"/>
        <pt x="1400" y="1400" on="0"/>
        <pt x="1400" y="1200" on="1"/>
        <pt x="1400" y="200" on="1"/>
        <pt x="1400" y="0" on="0"/>
        <pt x="1200" y="0" on="1"/>
        <pt x="400" y="0" on="1"/>
        <pt x="200" y="0" on="0"/>
        <pt x="200" y="200" on="1"/>
      </contour>
    </TTGlyph>
    <TTGlyph name="Ograve" xMin="200" yMin="0" xMax="1400" yMax="1800">
      <contour>
        <pt x="600" y="1800" on="1"/>
        <pt x="800" y="1800" on="1"/>
        <pt x="1000" y="1600" on="1"/>
        <pt x="800" y="1600" on="1"/>
      </contour>
      <contour>
        <pt x="200" y="1200" on="1"/>
        <pt x="200" y="1400" on="0"/>
        <pt x="400" y="1400" on="1"/>
        <pt x="1200" y="1400" on="1"/>
        <pt x="1400" y="1400" on="0"/>
        <pt x="1400" y="1200" on="1"/>
        <pt x="1400" y="200" on="1"/>
        <pt x="1400" y="0" on="0"/>
        <pt x="1200" y="0" on="1"/>
        <pt x="400" y="0" on="1"/>
        <pt x="200" y="0" on="0"/>
        <pt x="200" y="200" on="1"/>
      </contour>
      <contour>
        <pt x="600" y="1200" on="1"/>
        <pt x="600" y="200" on="1"/>
        <pt x="1000" y="200" on="1"/>
        <pt x="1000" y="1200" on="1"/>
      </contour>
    </TTGlyph>
    <TTGlyph name="Oslash" xMin="200" yMin="0" xMax="1400" yMax="1400">
      <contour>
        <pt x="200" y="1200" on="1"/>
        <pt x="200" y="1400" on="0"/>
        <pt x="400" y="1400" on="1"/>
        <pt x="1200" y="1400" on="1"/>
        <pt x="1400" y="1400" on="0"/>
        <pt x="1400" y="1200" on="1"/>
        <pt x="1400" y="200" on="1"/>
        <pt x="1400" y="0" on="0"/>
        <pt x="1200" y="0" on="1"/>
        <pt x="400" y="0" on="1"/>
        <pt x="200" y="0" on="0"/>
        <pt x="200" y="200" on="1"/>
      </contour>
      <contour>
        <pt x="595" y="792" on="1"/>
        <pt x="1000" y="1200" on="1"/>
        <pt x="595" y="1200" on="1"/>
      </contour>
      <contour>
        <pt x="1000" y="200" on="1"/>
        <pt x="1000" y="800" on="1"/>
        <pt x="600" y="400" on="1"/>
        <pt x="600" y="200" on="1"/>
      </contour>
    </TTGlyph>
    <TTGlyph name="Otilde" xMin="200" yMin="0" xMax="1400" yMax="1800">
      <contour>
        <pt x="600" y="1200" on="1"/>
        <pt x="600" y="200" on="1"/>
        <pt x="1000" y="200" on="1"/>
        <pt x="1000" y="1200" on="1"/>
      </contour>
      <contour>
        <pt x="1000" y="1800" on="1"/>
        <pt x="1200" y="1600" on="1"/>
        <pt x="1000" y="1600" on="1"/>
        <pt x="900" y="1700" on="1"/>
        <pt x="800" y="1600" on="1"/>
        <pt x="600" y="1600" on="1"/>
        <pt x="400" y="1800" on="1"/>
        <pt x="600" y="1800" on="1"/>
        <pt x="700" y="1700" on="1"/>
        <pt x="800" y="1800" on="1"/>
      </contour>
      <contour>
        <pt x="200" y="1200" on="1"/>
        <pt x="200" y="1400" on="0"/>
        <pt x="400" y="1400" on="1"/>
        <pt x="1200" y="1400" on="1"/>
        <pt x="1400" y="1400" on="0"/>
        <pt x="1400" y="1200" on="1"/>
        <pt x="1400" y="200" on="1"/>
        <pt x="1400" y="0" on="0"/>
        <pt x="1200" y="0" on="1"/>
        <pt x="400" y="0" on="1"/>
        <pt x="200" y="0" on="0"/>
        <pt x="200" y="200" on="1"/>
      </contour>
    </TTGlyph>
    <TTGlyph name="P" xMin="200" yMin="0" xMax="1400" yMax="1400">
      <contour>
        <pt x="200" y="1400" on="1"/>
        <pt x="1200" y="1400" on="1"/>
        <pt x="1400" y="1400" on="0"/>
        <pt x="1400" y="1200" on="1"/>
        <pt x="1400" y="800" on="1"/>
        <pt x="1400" y="600" on="0"/>
        <pt x="1200" y="600" on="1"/>
        <pt x="600" y="600" on="1"/>
        <pt x="600" y="0" on="1"/>
        <pt x="200" y="0" on="1"/>
      </contour>
      <contour>
        <pt x="600" y="1200" on="1"/>
        <pt x="600" y="800" on="1"/>
        <pt x="1000" y="800" on="1"/>
        <pt x="1000" y="1200" on="1"/>
      </contour>
    </TTGlyph>
    <TTGlyph name="Q" xMin="200" yMin="0" xMax="1400" yMax="1400">
      <contour>
        <pt x="400" y="1400" on="1"/>
        <pt x="1200" y="1400" on="1"/>
        <pt x="1400" y="1200" on="1"/>
        <pt x="1400" y="400" on="1"/>
        <pt x="1200" y="200" on="1"/>
        <pt x="1400" y="200" on="1"/>
        <pt x="1400" y="0" on="1"/>
        <pt x="800" y="0" on="1"/>
        <pt x="800" y="200" on="1"/>
        <pt x="400" y="200" on="1"/>
        <pt x="200" y="400" on="1"/>
        <pt x="200" y="1200" on="1"/>
      </contour>
      <contour>
        <pt x="1000" y="400" on="1"/>
        <pt x="1000" y="1200" on="1"/>
        <pt x="600" y="1200" on="1"/>
        <pt x="600" y="400" on="1"/>
      </contour>
    </TTGlyph>
    <TTGlyph name="R" xMin="200" yMin="0" xMax="1400" yMax="1400">
      <contour>
        <pt x="200" y="1400" on="1"/>
        <pt x="1200" y="1400" on="1"/>
        <pt x="1400" y="1400" on="0"/>
        <pt x="1400" y="1200" on="1"/>
        <pt x="1400" y="800" on="1"/>
        <pt x="1400" y="600" on="0"/>
        <pt x="1200" y="600" on="1"/>
        <pt x="1000" y="600" on="1"/>
        <pt x="1400" y="200" on="1"/>
        <pt x="1400" y="0" on="1"/>
        <pt x="1000" y="0" on="1"/>
        <pt x="1000" y="200" on="1"/>
        <pt x="800" y="400" on="1"/>
        <pt x="600" y="400" on="1"/>
        <pt x="600" y="0" on="1"/>
        <pt x="200" y="0" on="1"/>
      </contour>
      <contour>
        <pt x="600" y="1200" on="1"/>
        <pt x="600" y="800" on="1"/>
        <pt x="1000" y="800" on="1"/>
        <pt x="1000" y="1200" on="1"/>
      </contour>
    </TTGlyph>
    <TTGlyph name="S" xMin="200" yMin="0" xMax="1400" yMax="1400">
      <contour>
        <pt x="200" y="400" on="1"/>
        <pt x="600" y="400" on="1"/>
        <pt x="600" y="200" on="1"/>
        <pt x="1000" y="200" on="1"/>
        <pt x="1000" y="600" on="1"/>
        <pt x="400" y="600" on="1"/>
        <pt x="200" y="600" on="0"/>
        <pt x="200" y="800" on="1"/>
        <pt x="200" y="1200" on="1"/>
        <pt x="200" y="1400" on="0"/>
        <pt x="400" y="1400" on="1"/>
        <pt x="1200" y="1400" on="1"/>
        <pt x="1400" y="1400" on="0"/>
        <pt x="1400" y="1200" on="1"/>
        <pt x="1400" y="1000" on="1"/>
        <pt x="1000" y="1000" on="1"/>
        <pt x="1000" y="1200" on="1"/>
        <pt x="600" y="1200" on="1"/>
        <pt x="600" y="800" on="1"/>
        <pt x="1200" y="800" on="1"/>
        <pt x="1400" y="800" on="0"/>
        <pt x="1400" y="600" on="1"/>
        <pt x="1400" y="200" on="1"/>
        <pt x="1400" y="0" on="0"/>
        <pt x="1200" y="0" on="1"/>
        <pt x="400" y="0" on="1"/>
        <pt x="200" y="0" on="0"/>
        <pt x="200" y="200" on="1"/>
      </contour>
    </TTGlyph>
    <TTGlyph name="T" xMin="200" yMin="0" xMax="1400" yMax="1400">
      <contour>
        <pt x="200" y="1400" on="1"/>
        <pt x="1400" y="1400" on="1"/>
        <pt x="1400" y="1200" on="1"/>
        <pt x="1000" y="1200" on="1"/>
        <pt x="1000" y="0" on="1"/>
        <pt x="600" y="0" on="1"/>
        <pt x="600" y="1200" on="1"/>
        <pt x="200" y="1200" on="1"/>
      </contour>
    </TTGlyph>
    <TTGlyph name="U" xMin="200" yMin="0" xMax="1400" yMax="1400">
      <contour>
        <pt x="200" y="1400" on="1"/>
        <pt x="600" y="1400" on="1"/>
        <pt x="600" y="200" on="1"/>
        <pt x="1000" y="200" on="1"/>
        <pt x="1000" y="1400" on="1"/>
        <pt x="1400" y="1400" on="1"/>
        <pt x="1400" y="200" on="1"/>
        <pt x="1400" y="0" on="0"/>
        <pt x="1200" y="0" on="1"/>
        <pt x="400" y="0" on="1"/>
        <pt x="200" y="0" on="0"/>
        <pt x="200" y="200" on="1"/>
      </contour>
    </TTGlyph>
    <TTGlyph name="Uacute" xMin="200" yMin="0" xMax="1400" yMax="1800">
      <contour>
        <pt x="800" y="1600" on="1"/>
        <pt x="600" y="1600" on="1"/>
        <pt x="800" y="1800" on="1"/>
        <pt x="1000" y="1800" on="1"/>
      </contour>
      <contour>
        <pt x="200" y="1400" on="1"/>
        <pt x="600" y="1400" on="1"/>
        <pt x="600" y="200" on="1"/>
        <pt x="1000" y="200" on="1"/>
        <pt x="1000" y="1400" on="1"/>
        <pt x="1400" y="1400" on="1"/>
        <pt x="1400" y="200" on="1"/>
        <pt x="1400" y="0" on="0"/>
        <pt x="1200" y="0" on="1"/>
        <pt x="400" y="0" on="1"/>
        <pt x="200" y="0" on="0"/>
        <pt x="200" y="200" on="1"/>
      </contour>
    </TTGlyph>
    <TTGlyph name="Ucircumflex" xMin="200" yMin="0" xMax="1400" yMax="1800">
      <contour>
        <pt x="900" y="1600" on="1"/>
        <pt x="800" y="1700" on="1"/>
        <pt x="700" y="1600" on="1"/>
        <pt x="500" y="1600" on="1"/>
        <pt x="700" y="1800" on="1"/>
        <pt x="900" y="1800" on="1"/>
        <pt x="1100" y="1600" on="1"/>
      </contour>
      <contour>
        <pt x="200" y="1400" on="1"/>
        <pt x="600" y="1400" on="1"/>
        <pt x="600" y="200" on="1"/>
        <pt x="1000" y="200" on="1"/>
        <pt x="1000" y="1400" on="1"/>
        <pt x="1400" y="1400" on="1"/>
        <pt x="1400" y="200" on="1"/>
        <pt x="1400" y="0" on="0"/>
        <pt x="1200" y="0" on="1"/>
        <pt x="400" y="0" on="1"/>
        <pt x="200" y="0" on="0"/>
        <pt x="200" y="200" on="1"/>
      </contour>
    </TTGlyph>
    <TTGlyph name="Udieresis" xMin="200" yMin="0" xMax="1400" yMax="1802">
      <contour>
        <pt x="508" y="1796" on="1"/>
        <pt x="704" y="1796" on="1"/>
        <pt x="704" y="1600" on="1"/>
        <pt x="508" y="1600" on="1"/>
      </contour>
      <contour>
        <pt x="904" y="1802" on="1"/>
        <pt x="1100" y="1802" on="1"/>
        <pt x="1100" y="1606" on="1"/>
        <pt x="904" y="1606" on="1"/>
      </contour>
      <contour>
        <pt x="200" y="1400" on="1"/>
        <pt x="600" y="1400" on="1"/>
        <pt x="600" y="200" on="1"/>
        <pt x="1000" y="200" on="1"/>
        <pt x="1000" y="1400" on="1"/>
        <pt x="1400" y="1400" on="1"/>
        <pt x="1400" y="200" on="1"/>
        <pt x="1400" y="0" on="0"/>
        <pt x="1200" y="0" on="1"/>
        <pt x="400" y="0" on="1"/>
        <pt x="200" y="0" on="0"/>
        <pt x="200" y="200" on="1"/>
      </contour>
    </TTGlyph>
    <TTGlyph name="Ugrave" xMin="200" yMin="0" xMax="1400" yMax="1800">
      <contour>
        <pt x="600" y="1800" on="1"/>
        <pt x="800" y="1800" on="1"/>
        <pt x="1000" y="1600" on="1"/>
        <pt x="800" y="1600" on="1"/>
      </contour>
      <contour>
        <pt x="200" y="1400" on="1"/>
        <pt x="600" y="1400" on="1"/>
        <pt x="600" y="200" on="1"/>
        <pt x="1000" y="200" on="1"/>
        <pt x="1000" y="1400" on="1"/>
        <pt x="1400" y="1400" on="1"/>
        <pt x="1400" y="200" on="1"/>
        <pt x="1400" y="0" on="0"/>
        <pt x="1200" y="0" on="1"/>
        <pt x="400" y="0" on="1"/>
        <pt x="200" y="0" on="0"/>
        <pt x="200" y="200" on="1"/>
      </contour>
    </TTGlyph>
    <TTGlyph name="V" xMin="200" yMin="0" xMax="1400" yMax="1400">
      <contour>
        <pt x="200" y="1400" on="1"/>
        <pt x="600" y="1400" on="1"/>
        <pt x="600" y="400" on="1"/>
        <pt x="1000" y="400" on="1"/>
        <pt x="1000" y="1400" on="1"/>
        <pt x="1400" y="1400" on="1"/>
        <pt x="1400" y="400" on="1"/>
        <pt x="1200" y="200" on="1"/>
        <pt x="1000" y="0" on="1"/>
        <pt x="600" y="0" on="1"/>
        <pt x="400" y="200" on="1"/>
        <pt x="200" y="400" on="1"/>
      </contour>
    </TTGlyph>
    <TTGlyph name="W" xMin="200" yMin="0" xMax="1600" yMax="1400">
      <contour>
        <pt x="200" y="1400" on="1"/>
        <pt x="600" y="1400" on="1"/>
        <pt x="600" y="600" on="1"/>
        <pt x="800" y="800" on="1"/>
        <pt x="1000" y="800" on="1"/>
        <pt x="1200" y="600" on="1"/>
        <pt x="1200" y="1400" on="1"/>
        <pt x="1600" y="1400" on="1"/>
        <pt x="1600" y="0" on="1"/>
        <pt x="1200" y="0" on="1"/>
        <pt x="1200" y="200" on="1"/>
        <pt x="1000" y="400" on="1"/>
        <pt x="800" y="400" on="1"/>
        <pt x="600" y="200" on="1"/>
        <pt x="600" y="0" on="1"/>
        <pt x="200" y="0" on="1"/>
      </contour>
    </TTGlyph>
    <TTGlyph name="X" xMin="200" yMin="0" xMax="1400" yMax="1400">
      <contour>
        <pt x="200" y="400" on="1"/>
        <pt x="600" y="700" on="1"/>
        <pt x="200" y="1000" on="1"/>
        <pt x="200" y="1400" on="1"/>
        <pt x="600" y="1400" on="1"/>
        <pt x="600" y="1200" on="1"/>
        <pt x="800" y="1000" on="1"/>
        <pt x="1000" y="1200" on="1"/>
        <pt x="1000" y="1400" on="1"/>
        <pt x="1400" y="1400" on="1"/>
        <pt x="1400" y="1000" on="1"/>
        <pt x="1000" y="700" on="1"/>
        <pt x="1400" y="400" on="1"/>
        <pt x="1400" y="0" on="1"/>
        <pt x="1000" y="0" on="1"/>
        <pt x="1000" y="200" on="1"/>
        <pt x="800" y="400" on="1"/>
        <pt x="600" y="200" on="1"/>
        <pt x="600" y="0" on="1"/>
        <pt x="200" y="0" on="1"/>
      </contour>
    </TTGlyph>
    <TTGlyph name="Y" xMin="200" yMin="0" xMax="1400" yMax="1400">
      <contour>
        <pt x="200" y="1400" on="1"/>
        <pt x="600" y="1400" on="1"/>
        <pt x="600" y="800" on="1"/>
        <pt x="1000" y="800" on="1"/>
        <pt x="1000" y="1400" on="1"/>
        <pt x="1400" y="1400" on="1"/>
        <pt x="1400" y="800" on="1"/>
        <pt x="1400" y="600" on="0"/>
        <pt x="1200" y="600" on="1"/>
        <pt x="1000" y="600" on="1"/>
        <pt x="1000" y="0" on="1"/>
        <pt x="600" y="0" on="1"/>
        <pt x="600" y="600" on="1"/>
        <pt x="400" y="600" on="1"/>
        <pt x="200" y="600" on="0"/>
        <pt x="200" y="800" on="1"/>
      </contour>
    </TTGlyph>
    <TTGlyph name="Ydieresis" xMin="200" yMin="0" xMax="1400" yMax="1796">
      <contour>
        <pt x="200" y="1400" on="1"/>
        <pt x="600" y="1400" on="1"/>
        <pt x="600" y="800" on="1"/>
        <pt x="1000" y="800" on="1"/>
        <pt x="1000" y="1400" on="1"/>
        <pt x="1400" y="1400" on="1"/>
        <pt x="1400" y="800" on="1"/>
        <pt x="1400" y="600" on="0"/>
        <pt x="1200" y="600" on="1"/>
        <pt x="1000" y="600" on="1"/>
        <pt x="1000" y="0" on="1"/>
        <pt x="600" y="0" on="1"/>
        <pt x="600" y="600" on="1"/>
        <pt x="400" y="600" on="1"/>
        <pt x="200" y="600" on="0"/>
        <pt x="200" y="800" on="1"/>
      </contour>
      <contour>
        <pt x="504" y="1796" on="1"/>
        <pt x="700" y="1796" on="1"/>
        <pt x="700" y="1600" on="1"/>
        <pt x="504" y="1600" on="1"/>
      </contour>
      <contour>
        <pt x="904" y="1796" on="1"/>
        <pt x="1100" y="1796" on="1"/>
        <pt x="1100" y="1600" on="1"/>
        <pt x="904" y="1600" on="1"/>
      </contour>
    </TTGlyph>
    <TTGlyph name="Z" xMin="200" yMin="0" xMax="1400" yMax="1400">
      <contour>
        <pt x="200" y="400" on="1"/>
        <pt x="400" y="600" on="1"/>
        <pt x="600" y="800" on="1"/>
        <pt x="800" y="1000" on="1"/>
        <pt x="1000" y="1200" on="1"/>
        <pt x="200" y="1200" on="1"/>
        <pt x="200" y="1400" on="1"/>
        <pt x="1400" y="1400" on="1"/>
        <pt x="1400" y="1000" on="1"/>
        <pt x="1200" y="800" on="1"/>
        <pt x="1000" y="600" on="1"/>
        <pt x="800" y="400" on="1"/>
        <pt x="600" y="200" on="1"/>
        <pt x="1400" y="200" on="1"/>
        <pt x="1400" y="0" on="1"/>
        <pt x="200" y="0" on="1"/>
      </contour>
    </TTGlyph>
    <TTGlyph name="a" xMin="200" yMin="0" xMax="1400" yMax="1000">
      <contour>
        <pt x="200" y="400" on="1"/>
        <pt x="200" y="600" on="0"/>
        <pt x="400" y="600" on="1"/>
        <pt x="1000" y="600" on="1"/>
        <pt x="1000" y="800" on="1"/>
        <pt x="400" y="800" on="1"/>
        <pt x="400" y="1000" on="1"/>
        <pt x="1200" y="1000" on="1"/>
        <pt x="1400" y="1000" on="0"/>
        <pt x="1400" y="800" on="1"/>
        <pt x="1400" y="0" on="1"/>
        <pt x="400" y="0" on="1"/>
        <pt x="200" y="0" on="0"/>
        <pt x="200" y="200" on="1"/>
      </contour>
      <contour>
        <pt x="600" y="400" on="1"/>
        <pt x="600" y="200" on="1"/>
        <pt x="1000" y="200" on="1"/>
        <pt x="1000" y="400" on="1"/>
      </contour>
    </TTGlyph>
    <TTGlyph name="aacute" xMin="200" yMin="0" xMax="1400" yMax="1400">
      <contour>
        <pt x="600" y="400" on="1"/>
        <pt x="600" y="200" on="1"/>
        <pt x="1000" y="200" on="1"/>
        <pt x="1000" y="400" on="1"/>
      </contour>
      <contour>
        <pt x="800" y="1200" on="1"/>
        <pt x="600" y="1200" on="1"/>
        <pt x="800" y="1400" on="1"/>
        <pt x="1000" y="1400" on="1"/>
      </contour>
      <contour>
        <pt x="200" y="400" on="1"/>
        <pt x="200" y="600" on="0"/>
        <pt x="400" y="600" on="1"/>
        <pt x="1000" y="600" on="1"/>
        <pt x="1000" y="800" on="1"/>
        <pt x="400" y="800" on="1"/>
        <pt x="400" y="1000" on="1"/>
        <pt x="1200" y="1000" on="1"/>
        <pt x="1400" y="1000" on="0"/>
        <pt x="1400" y="800" on="1"/>
        <pt x="1400" y="0" on="1"/>
        <pt x="400" y="0" on="1"/>
        <pt x="200" y="0" on="0"/>
        <pt x="200" y="200" on="1"/>
      </contour>
    </TTGlyph>
    <TTGlyph name="acircumflex" xMin="200" yMin="0" xMax="1400" yMax="1400">
      <contour>
        <pt x="600" y="400" on="1"/>
        <pt x="600" y="200" on="1"/>
        <pt x="1000" y="200" on="1"/>
        <pt x="1000" y="400" on="1"/>
      </contour>
      <contour>
        <pt x="900" y="1200" on="1"/>
        <pt x="800" y="1300" on="1"/>
        <pt x="700" y="1200" on="1"/>
        <pt x="500" y="1200" on="1"/>
        <pt x="700" y="1400" on="1"/>
        <pt x="900" y="1400" on="1"/>
        <pt x="1100" y="1200" on="1"/>
      </contour>
      <contour>
        <pt x="200" y="400" on="1"/>
        <pt x="200" y="600" on="0"/>
        <pt x="400" y="600" on="1"/>
        <pt x="1000" y="600" on="1"/>
        <pt x="1000" y="800" on="1"/>
        <pt x="400" y="800" on="1"/>
        <pt x="400" y="1000" on="1"/>
        <pt x="1200" y="1000" on="1"/>
        <pt x="1400" y="1000" on="0"/>
        <pt x="1400" y="800" on="1"/>
        <pt x="1400" y="0" on="1"/>
        <pt x="400" y="0" on="1"/>
        <pt x="200" y="0" on="0"/>
        <pt x="200" y="200" on="1"/>
      </contour>
    </TTGlyph>
    <TTGlyph name="acute" xMin="600" yMin="1600" xMax="1000" yMax="1800">
      <contour>
        <pt x="800" y="1600" on="1"/>
        <pt x="600" y="1600" on="1"/>
        <pt x="800" y="1800" on="1"/>
        <pt x="1000" y="1800" on="1"/>
      </contour>
    </TTGlyph>
    <TTGlyph name="adieresis" xMin="200" yMin="0" xMax="1400" yMax="1402">
      <contour>
        <pt x="600" y="400" on="1"/>
        <pt x="600" y="200" on="1"/>
        <pt x="1000" y="200" on="1"/>
        <pt x="1000" y="400" on="1"/>
      </contour>
      <contour>
        <pt x="500" y="1396" on="1"/>
        <pt x="696" y="1396" on="1"/>
        <pt x="696" y="1200" on="1"/>
        <pt x="500" y="1200" on="1"/>
      </contour>
      <contour>
        <pt x="896" y="1402" on="1"/>
        <pt x="1092" y="1402" on="1"/>
        <pt x="1092" y="1206" on="1"/>
        <pt x="896" y="1206" on="1"/>
      </contour>
      <contour>
        <pt x="200" y="400" on="1"/>
        <pt x="200" y="600" on="0"/>
        <pt x="400" y="600" on="1"/>
        <pt x="1000" y="600" on="1"/>
        <pt x="1000" y="800" on="1"/>
        <pt x="400" y="800" on="1"/>
        <pt x="400" y="1000" on="1"/>
        <pt x="1200" y="1000" on="1"/>
        <pt x="1400" y="1000" on="0"/>
        <pt x="1400" y="800" on="1"/>
        <pt x="1400" y="0" on="1"/>
        <pt x="400" y="0" on="1"/>
        <pt x="200" y="0" on="0"/>
        <pt x="200" y="200" on="1"/>
      </contour>
    </TTGlyph>
    <TTGlyph name="ae" xMin="200" yMin="0" xMax="1400" yMax="1000">
      <contour>
        <pt x="400" y="400" on="1"/>
        <pt x="400" y="200" on="1"/>
        <pt x="600" y="200" on="1"/>
        <pt x="600" y="400" on="1"/>
      </contour>
      <contour>
        <pt x="1000" y="800" on="1"/>
        <pt x="1000" y="600" on="1"/>
        <pt x="1200" y="600" on="1"/>
        <pt x="1200" y="800" on="1"/>
      </contour>
      <contour>
        <pt x="200" y="400" on="1"/>
        <pt x="200" y="600" on="0"/>
        <pt x="400" y="600" on="1"/>
        <pt x="600" y="600" on="1"/>
        <pt x="600" y="800" on="1"/>
        <pt x="300" y="800" on="1"/>
        <pt x="300" y="1000" on="0"/>
        <pt x="500" y="1000" on="1"/>
        <pt x="1200" y="1000" on="1"/>
        <pt x="1400" y="1000" on="0"/>
        <pt x="1400" y="800" on="1"/>
        <pt x="1400" y="400" on="1"/>
        <pt x="1000" y="400" on="1"/>
        <pt x="1000" y="200" on="1"/>
        <pt x="1400" y="200" on="1"/>
        <pt x="1400" y="0" on="1"/>
        <pt x="400" y="0" on="1"/>
        <pt x="200" y="0" on="0"/>
        <pt x="200" y="200" on="1"/>
      </contour>
    </TTGlyph>
    <TTGlyph name="agrave" xMin="200" yMin="0" xMax="1400" yMax="1400">
      <contour>
        <pt x="600" y="400" on="1"/>
        <pt x="600" y="200" on="1"/>
        <pt x="1000" y="200" on="1"/>
        <pt x="1000" y="400" on="1"/>
      </contour>
      <contour>
        <pt x="639" y="1400" on="1"/>
        <pt x="839" y="1400" on="1"/>
        <pt x="1039" y="1200" on="1"/>
        <pt x="839" y="1200" on="1"/>
      </contour>
      <contour>
        <pt x="200" y="400" on="1"/>
        <pt x="200" y="600" on="0"/>
        <pt x="400" y="600" on="1"/>
        <pt x="1000" y="600" on="1"/>
        <pt x="1000" y="800" on="1"/>
        <pt x="400" y="800" on="1"/>
        <pt x="400" y="1000" on="1"/>
        <pt x="1200" y="1000" on="1"/>
        <pt x="1400" y="1000" on="0"/>
        <pt x="1400" y="800" on="1"/>
        <pt x="1400" y="0" on="1"/>
        <pt x="400" y="0" on="1"/>
        <pt x="200" y="0" on="0"/>
        <pt x="200" y="200" on="1"/>
      </contour>
    </TTGlyph>
    <TTGlyph name="ampersand" xMin="200" yMin="0" xMax="1600" yMax="1400">
      <contour>
        <pt x="200" y="600" on="1"/>
        <pt x="200" y="800" on="0"/>
        <pt x="400" y="800" on="1"/>
        <pt x="200" y="800" on="0"/>
        <pt x="200" y="1000" on="1"/>
        <pt x="200" y="1200" on="1"/>
        <pt x="200" y="1400" on="0"/>
        <pt x="400" y="1400" on="1"/>
        <pt x="1200" y="1400" on="1"/>
        <pt x="1400" y="1400" on="0"/>
        <pt x="1400" y="1200" on="1"/>
        <pt x="1400" y="1000" on="1"/>
        <pt x="1400" y="800" on="0"/>
        <pt x="1200" y="800" on="1"/>
        <pt x="1000" y="800" on="1"/>
        <pt x="1000" y="600" on="1"/>
        <pt x="1600" y="600" on="1"/>
        <pt x="1600" y="400" on="1"/>
        <pt x="1400" y="400" on="1"/>
        <pt x="1400" y="200" on="1"/>
        <pt x="1600" y="200" on="1"/>
        <pt x="1600" y="0" on="1"/>
        <pt x="400" y="0" on="1"/>
        <pt x="200" y="0" on="0"/>
        <pt x="200" y="200" on="1"/>
      </contour>
      <contour>
        <pt x="1000" y="1200" on="1"/>
        <pt x="600" y="1200" on="1"/>
        <pt x="600" y="1000" on="1"/>
        <pt x="1000" y="1000" on="1"/>
      </contour>
      <contour>
        <pt x="600" y="600" on="1"/>
        <pt x="600" y="200" on="1"/>
        <pt x="1000" y="200" on="1"/>
        <pt x="1000" y="600" on="1"/>
      </contour>
    </TTGlyph>
    <TTGlyph name="aring" xMin="200" yMin="0" xMax="1400" yMax="1396">
      <contour>
        <pt x="600" y="400" on="1"/>
        <pt x="600" y="200" on="1"/>
        <pt x="1000" y="200" on="1"/>
        <pt x="1000" y="400" on="1"/>
      </contour>
      <contour>
        <pt x="704" y="1396" on="1"/>
        <pt x="900" y="1396" on="1"/>
        <pt x="900" y="1200" on="1"/>
        <pt x="704" y="1200" on="1"/>
      </contour>
      <contour>
        <pt x="200" y="400" on="1"/>
        <pt x="200" y="600" on="0"/>
        <pt x="400" y="600" on="1"/>
        <pt x="1000" y="600" on="1"/>
        <pt x="1000" y="800" on="1"/>
        <pt x="400" y="800" on="1"/>
        <pt x="400" y="1000" on="1"/>
        <pt x="1200" y="1000" on="1"/>
        <pt x="1400" y="1000" on="0"/>
        <pt x="1400" y="800" on="1"/>
        <pt x="1400" y="0" on="1"/>
        <pt x="400" y="0" on="1"/>
        <pt x="200" y="0" on="0"/>
        <pt x="200" y="200" on="1"/>
      </contour>
    </TTGlyph>
    <TTGlyph name="asciicircum" xMin="200" yMin="800" xMax="1400" yMax="1400">
      <contour>
        <pt x="200" y="1000" on="1"/>
        <pt x="600" y="1400" on="1"/>
        <pt x="1000" y="1400" on="1"/>
        <pt x="1400" y="1000" on="1"/>
        <pt x="1400" y="800" on="1"/>
        <pt x="1200" y="800" on="1"/>
        <pt x="800" y="1200" on="1"/>
        <pt x="400" y="800" on="1"/>
        <pt x="200" y="800" on="1"/>
      </contour>
    </TTGlyph>
    <TTGlyph name="asciitilde" xMin="200" yMin="900" xMax="1200" yMax="1400">
      <contour>
        <pt x="1200" y="1100" on="1"/>
        <pt x="1200" y="900" on="0"/>
        <pt x="1000" y="900" on="1"/>
        <pt x="800" y="900" on="1"/>
        <pt x="600" y="900" on="0"/>
        <pt x="600" y="1100" on="1"/>
        <pt x="600" y="1200" on="0"/>
        <pt x="500" y="1200" on="1"/>
        <pt x="400" y="1200" on="0"/>
        <pt x="400" y="1100" on="1"/>
        <pt x="400" y="900" on="1"/>
        <pt x="200" y="900" on="1"/>
        <pt x="200" y="1200" on="1"/>
        <pt x="200" y="1400" on="0"/>
        <pt x="400" y="1400" on="1"/>
        <pt x="600" y="1400" on="1"/>
        <pt x="800" y="1400" on="0"/>
        <pt x="800" y="1200" on="1"/>
        <pt x="800" y="1100" on="0"/>
        <pt x="900" y="1100" on="1"/>
        <pt x="1000" y="1100" on="0"/>
        <pt x="1000" y="1200" on="1"/>
        <pt x="1000" y="1400" on="1"/>
        <pt x="1200" y="1400" on="1"/>
      </contour>
    </TTGlyph>
    <TTGlyph name="asterisk" xMin="0" yMin="200" xMax="1600" yMax="1200">
      <contour>
        <pt x="0" y="800" on="1"/>
        <pt x="600" y="800" on="1"/>
        <pt x="400" y="1000" on="1"/>
        <pt x="200" y="1200" on="1"/>
        <pt x="600" y="1200" on="1"/>
        <pt x="800" y="1000" on="1"/>
        <pt x="1000" y="1200" on="1"/>
        <pt x="1400" y="1200" on="1"/>
        <pt x="1200" y="1000" on="1"/>
        <pt x="1000" y="800" on="1"/>
        <pt x="1600" y="800" on="1"/>
        <pt x="1600" y="600" on="1"/>
        <pt x="1000" y="600" on="1"/>
        <pt x="1200" y="400" on="1"/>
        <pt x="1400" y="200" on="1"/>
        <pt x="1000" y="200" on="1"/>
        <pt x="800" y="400" on="1"/>
        <pt x="600" y="200" on="1"/>
        <pt x="202" y="200" on="1"/>
        <pt x="400" y="400" on="1"/>
        <pt x="600" y="600" on="1"/>
        <pt x="0" y="600" on="1"/>
      </contour>
    </TTGlyph>
    <TTGlyph name="at" xMin="200" yMin="0" xMax="1400" yMax="1400">
      <contour>
        <pt x="200" y="1400" on="0"/>
        <pt x="400" y="1400" on="1"/>
        <pt x="1200" y="1400" on="1"/>
        <pt x="1400" y="1400" on="0"/>
        <pt x="1400" y="1200" on="1"/>
        <pt x="1400" y="800" on="1"/>
        <pt x="1400" y="600" on="0"/>
        <pt x="1200" y="600" on="1"/>
        <pt x="1000" y="600" on="1"/>
        <pt x="800" y="600" on="0"/>
        <pt x="800" y="800" on="1"/>
        <pt x="800" y="1000" on="1"/>
        <pt x="1000" y="1000" on="1"/>
        <pt x="1000" y="1200" on="1"/>
        <pt x="600" y="1200" on="1"/>
        <pt x="600" y="200" on="1"/>
        <pt x="1200" y="200" on="1"/>
        <pt x="1200" y="400" on="1"/>
        <pt x="1400" y="400" on="1"/>
        <pt x="1400" y="200" on="1"/>
        <pt x="1400" y="0" on="0"/>
        <pt x="1200" y="0" on="1"/>
        <pt x="400" y="0" on="1"/>
        <pt x="200" y="0" on="0"/>
        <pt x="200" y="200" on="1"/>
        <pt x="200" y="1200" on="1"/>
      </contour>
    </TTGlyph>
    <TTGlyph name="atilde" xMin="200" yMin="0" xMax="1400" yMax="1400">
      <contour>
        <pt x="600" y="400" on="1"/>
        <pt x="600" y="200" on="1"/>
        <pt x="1000" y="200" on="1"/>
        <pt x="1000" y="400" on="1"/>
      </contour>
      <contour>
        <pt x="1000" y="1400" on="1"/>
        <pt x="1200" y="1200" on="1"/>
        <pt x="1000" y="1200" on="1"/>
        <pt x="900" y="1300" on="1"/>
        <pt x="800" y="1200" on="1"/>
        <pt x="600" y="1200" on="1"/>
        <pt x="400" y="1400" on="1"/>
        <pt x="600" y="1400" on="1"/>
        <pt x="700" y="1300" on="1"/>
        <pt x="800" y="1400" on="1"/>
      </contour>
      <contour>
        <pt x="200" y="400" on="1"/>
        <pt x="200" y="600" on="0"/>
        <pt x="400" y="600" on="1"/>
        <pt x="1000" y="600" on="1"/>
        <pt x="1000" y="800" on="1"/>
        <pt x="400" y="800" on="1"/>
        <pt x="400" y="1000" on="1"/>
        <pt x="1200" y="1000" on="1"/>
        <pt x="1400" y="1000" on="0"/>
        <pt x="1400" y="800" on="1"/>
        <pt x="1400" y="0" on="1"/>
        <pt x="400" y="0" on="1"/>
        <pt x="200" y="0" on="0"/>
        <pt x="200" y="200" on="1"/>
      </contour>
    </TTGlyph>
    <TTGlyph name="b" xMin="200" yMin="0" xMax="1400" yMax="1200">
      <contour>
        <pt x="200" y="1200" on="1"/>
        <pt x="600" y="1200" on="1"/>
        <pt x="600" y="800" on="1"/>
        <pt x="1200" y="800" on="1"/>
        <pt x="1400" y="800" on="0"/>
        <pt x="1400" y="600" on="1"/>
        <pt x="1400" y="200" on="1"/>
        <pt x="1400" y="0" on="0"/>
        <pt x="1200" y="0" on="1"/>
        <pt x="200" y="0" on="1"/>
      </contour>
      <contour>
        <pt x="600" y="600" on="1"/>
        <pt x="600" y="200" on="1"/>
        <pt x="1000" y="200" on="1"/>
        <pt x="1000" y="600" on="1"/>
      </contour>
    </TTGlyph>
    <TTGlyph name="backslash" xMin="200" yMin="0" xMax="1600" yMax="1200">
      <contour>
        <pt x="1600" y="0" on="1"/>
        <pt x="1200" y="0" on="1"/>
        <pt x="200" y="1000" on="1"/>
        <pt x="200" y="1200" on="1"/>
        <pt x="600" y="1200" on="1"/>
        <pt x="1600" y="200" on="1"/>
      </contour>
    </TTGlyph>
    <TTGlyph name="bar" xMin="600" yMin="0" xMax="1000" yMax="1400">
      <contour>
        <pt x="600" y="1400" on="1"/>
        <pt x="1000" y="1400" on="1"/>
        <pt x="1000" y="0" on="1"/>
        <pt x="600" y="0" on="1"/>
      </contour>
    </TTGlyph>
    <TTGlyph name="braceleft" xMin="200" yMin="0" xMax="1400" yMax="1400">
      <contour>
        <pt x="1400" y="1400" on="1"/>
        <pt x="1400" y="1200" on="1"/>
        <pt x="1000" y="1200" on="1"/>
        <pt x="1000" y="900" on="1"/>
        <pt x="1000" y="700" on="0"/>
        <pt x="800" y="700" on="1"/>
        <pt x="1000" y="700" on="0"/>
        <pt x="1000" y="500" on="1"/>
        <pt x="1000" y="200" on="1"/>
        <pt x="1400" y="200" on="1"/>
        <pt x="1400" y="0" on="1"/>
        <pt x="800" y="0" on="1"/>
        <pt x="600" y="0" on="0"/>
        <pt x="600" y="200" on="1"/>
        <pt x="600" y="600" on="1"/>
        <pt x="200" y="600" on="1"/>
        <pt x="200" y="800" on="1"/>
        <pt x="600" y="800" on="1"/>
        <pt x="600" y="1200" on="1"/>
        <pt x="600" y="1400" on="0"/>
        <pt x="800" y="1400" on="1"/>
      </contour>
    </TTGlyph>
    <TTGlyph name="braceright" xMin="200" yMin="0" xMax="1400" yMax="1400">
      <contour>
        <pt x="800" y="1400" on="1"/>
        <pt x="1000" y="1400" on="0"/>
        <pt x="1000" y="1200" on="1"/>
        <pt x="1000" y="800" on="1"/>
        <pt x="1400" y="800" on="1"/>
        <pt x="1400" y="600" on="1"/>
        <pt x="1000" y="600" on="1"/>
        <pt x="1000" y="200" on="1"/>
        <pt x="1000" y="0" on="0"/>
        <pt x="800" y="0" on="1"/>
        <pt x="200" y="0" on="1"/>
        <pt x="200" y="200" on="1"/>
        <pt x="600" y="200" on="1"/>
        <pt x="600" y="500" on="1"/>
        <pt x="600" y="700" on="0"/>
        <pt x="800" y="700" on="1"/>
        <pt x="600" y="700" on="0"/>
        <pt x="600" y="900" on="1"/>
        <pt x="600" y="1200" on="1"/>
        <pt x="200" y="1200" on="1"/>
        <pt x="200" y="1400" on="1"/>
      </contour>
    </TTGlyph>
    <TTGlyph name="bracketleft" xMin="400" yMin="0" xMax="1200" yMax="1400">
      <contour>
        <pt x="400" y="1400" on="1"/>
        <pt x="1200" y="1400" on="1"/>
        <pt x="1200" y="1200" on="1"/>
        <pt x="800" y="1200" on="1"/>
        <pt x="800" y="200" on="1"/>
        <pt x="1200" y="200" on="1"/>
        <pt x="1200" y="0" on="1"/>
        <pt x="400" y="0" on="1"/>
      </contour>
    </TTGlyph>
    <TTGlyph name="bracketright" xMin="400" yMin="0" xMax="1200" yMax="1400">
      <contour>
        <pt x="1200" y="0" on="1"/>
        <pt x="400" y="0" on="1"/>
        <pt x="400" y="200" on="1"/>
        <pt x="800" y="200" on="1"/>
        <pt x="800" y="1200" on="1"/>
        <pt x="400" y="1200" on="1"/>
        <pt x="400" y="1400" on="1"/>
        <pt x="1200" y="1400" on="1"/>
      </contour>
    </TTGlyph>
    <TTGlyph name="breve" xMin="400" yMin="1500" xMax="1000" yMax="1800">
      <contour>
        <pt x="1000" y="1800" on="1"/>
        <pt x="1000" y="1600" on="1"/>
        <pt x="1000" y="1500" on="0"/>
        <pt x="900" y="1500" on="1"/>
        <pt x="500" y="1500" on="1"/>
        <pt x="400" y="1500" on="0"/>
        <pt x="400" y="1600" on="1"/>
        <pt x="400" y="1800" on="1"/>
        <pt x="600" y="1800" on="1"/>
        <pt x="600" y="1600" on="1"/>
        <pt x="800" y="1600" on="1"/>
        <pt x="800" y="1800" on="1"/>
      </contour>
    </TTGlyph>
    <TTGlyph name="bullet" xMin="400" yMin="200" xMax="1200" yMax="1000">
      <contour>
        <pt x="400" y="800" on="1"/>
        <pt x="400" y="1000" on="0"/>
        <pt x="600" y="1000" on="1"/>
        <pt x="1000" y="1000" on="1"/>
        <pt x="1200" y="1000" on="0"/>
        <pt x="1200" y="800" on="1"/>
        <pt x="1200" y="400" on="1"/>
        <pt x="1200" y="200" on="0"/>
        <pt x="1000" y="200" on="1"/>
        <pt x="600" y="200" on="1"/>
        <pt x="400" y="200" on="0"/>
        <pt x="400" y="400" on="1"/>
      </contour>
    </TTGlyph>
    <TTGlyph name="c" xMin="200" yMin="0" xMax="1200" yMax="1000">
      <contour>
        <pt x="200" y="800" on="1"/>
        <pt x="200" y="1000" on="0"/>
        <pt x="400" y="1000" on="1"/>
        <pt x="1200" y="1000" on="1"/>
        <pt x="1200" y="800" on="1"/>
        <pt x="600" y="800" on="1"/>
        <pt x="600" y="200" on="1"/>
        <pt x="1200" y="200" on="1"/>
        <pt x="1200" y="0" on="1"/>
        <pt x="400" y="0" on="1"/>
        <pt x="200" y="0" on="0"/>
        <pt x="200" y="200" on="1"/>
      </contour>
    </TTGlyph>
    <TTGlyph name="caron" xMin="400" yMin="1500" xMax="1200" yMax="1800">
      <contour>
        <pt x="1200" y="1800" on="1"/>
        <pt x="900" y="1500" on="1"/>
        <pt x="700" y="1500" on="1"/>
        <pt x="400" y="1800" on="1"/>
        <pt x="600" y="1800" on="1"/>
        <pt x="800" y="1600" on="1"/>
        <pt x="1000" y="1800" on="1"/>
      </contour>
    </TTGlyph>
    <TTGlyph name="ccedilla" xMin="200" yMin="-200" xMax="1200" yMax="1000">
      <contour>
        <pt x="200" y="800" on="1"/>
        <pt x="200" y="1000" on="0"/>
        <pt x="400" y="1000" on="1"/>
        <pt x="1200" y="1000" on="1"/>
        <pt x="1200" y="800" on="1"/>
        <pt x="600" y="800" on="1"/>
        <pt x="600" y="200" on="1"/>
        <pt x="1200" y="200" on="1"/>
        <pt x="1200" y="0" on="1"/>
        <pt x="400" y="0" on="1"/>
        <pt x="200" y="0" on="0"/>
        <pt x="200" y="200" on="1"/>
      </contour>
      <contour>
        <pt x="800" y="-200" on="1"/>
        <pt x="400" y="-200" on="1"/>
        <pt x="600" y="0" on="1"/>
        <pt x="1000" y="0" on="1"/>
      </contour>
    </TTGlyph>
    <TTGlyph name="cedilla" xMin="200" yMin="-200" xMax="800" yMax="0">
      <contour>
        <pt x="600" y="-200" on="1"/>
        <pt x="200" y="-200" on="1"/>
        <pt x="400" y="0" on="1"/>
        <pt x="800" y="0" on="1"/>
      </contour>
    </TTGlyph>
    <TTGlyph name="cent" xMin="200" yMin="0" xMax="1200" yMax="1400">
      <contour>
        <pt x="200" y="1000" on="1"/>
        <pt x="200" y="1200" on="0"/>
        <pt x="400" y="1200" on="1"/>
        <pt x="600" y="1200" on="1"/>
        <pt x="600" y="1400" on="1"/>
        <pt x="800" y="1400" on="1"/>
        <pt x="800" y="1200" on="1"/>
        <pt x="1200" y="1200" on="1"/>
        <pt x="1200" y="1000" on="1"/>
        <pt x="600" y="1000" on="1"/>
        <pt x="600" y="400" on="1"/>
        <pt x="1200" y="400" on="1"/>
        <pt x="1200" y="200" on="1"/>
        <pt x="800" y="200" on="1"/>
        <pt x="800" y="0" on="1"/>
        <pt x="600" y="0" on="1"/>
        <pt x="600" y="200" on="1"/>
        <pt x="400" y="200" on="1"/>
        <pt x="200" y="200" on="0"/>
        <pt x="200" y="400" on="1"/>
      </contour>
    </TTGlyph>
    <TTGlyph name="circumflex" xMin="400" yMin="1500" xMax="1200" yMax="1800">
      <contour>
        <pt x="1000" y="1500" on="1"/>
        <pt x="800" y="1700" on="1"/>
        <pt x="600" y="1500" on="1"/>
        <pt x="400" y="1500" on="1"/>
        <pt x="700" y="1800" on="1"/>
        <pt x="900" y="1800" on="1"/>
        <pt x="1200" y="1500" on="1"/>
      </contour>
    </TTGlyph>
    <TTGlyph name="colon" xMin="600" yMin="0" xMax="1000" yMax="1400">
      <contour>
        <pt x="600" y="1400" on="1"/>
        <pt x="1000" y="1400" on="1"/>
        <pt x="1000" y="1000" on="1"/>
        <pt x="600" y="1000" on="1"/>
      </contour>
      <contour>
        <pt x="600" y="400" on="1"/>
        <pt x="1000" y="400" on="1"/>
        <pt x="1000" y="0" on="1"/>
        <pt x="600" y="0" on="1"/>
      </contour>
    </TTGlyph>
    <TTGlyph name="comma" xMin="400" yMin="-200" xMax="1000" yMax="400">
      <contour>
        <pt x="600" y="400" on="1"/>
        <pt x="1000" y="400" on="1"/>
        <pt x="1000" y="0" on="1"/>
        <pt x="1000" y="-200" on="0"/>
        <pt x="800" y="-200" on="1"/>
        <pt x="400" y="-200" on="1"/>
        <pt x="400" y="0" on="1"/>
        <pt x="600" y="0" on="1"/>
      </contour>
    </TTGlyph>
    <TTGlyph name="copyright" xMin="0" yMin="0" xMax="1200" yMax="1400">
      <contour>
        <pt x="400" y="800" on="1"/>
        <pt x="400" y="1000" on="0"/>
        <pt x="600" y="1000" on="1"/>
        <pt x="800" y="1000" on="1"/>
        <pt x="800" y="800" on="1"/>
        <pt x="600" y="800" on="1"/>
        <pt x="600" y="600" on="1"/>
        <pt x="800" y="600" on="1"/>
        <pt x="800" y="400" on="1"/>
        <pt x="601" y="400" on="1"/>
        <pt x="402" y="400" on="0"/>
        <pt x="401" y="600" on="1"/>
      </contour>
      <contour>
        <pt x="202" y="1400" on="1"/>
        <pt x="1000" y="1400" on="1"/>
        <pt x="1200" y="1400" on="0"/>
        <pt x="1200" y="1200" on="1"/>
        <pt x="1200" y="200" on="1"/>
        <pt x="1200" y="0" on="0"/>
        <pt x="1000" y="0" on="1"/>
        <pt x="200" y="0" on="1"/>
        <pt x="0" y="0" on="0"/>
        <pt x="0" y="200" on="1"/>
        <pt x="2" y="1200" on="1"/>
        <pt x="0" y="1400" on="0"/>
      </contour>
      <contour>
        <pt x="202" y="1200" on="1"/>
        <pt x="202" y="200" on="1"/>
        <pt x="1000" y="200" on="1"/>
        <pt x="1000" y="1200" on="1"/>
      </contour>
    </TTGlyph>
    <TTGlyph name="currency" xMin="200" yMin="0" xMax="1400" yMax="1200">
      <contour>
        <pt x="400" y="800" on="1"/>
        <pt x="200" y="1000" on="1"/>
        <pt x="200" y="1200" on="1"/>
        <pt x="400" y="1200" on="1"/>
        <pt x="600" y="1000" on="1"/>
        <pt x="1000" y="1000" on="1"/>
        <pt x="1200" y="1200" on="1"/>
        <pt x="1400" y="1200" on="1"/>
        <pt x="1400" y="1000" on="1"/>
        <pt x="1200" y="800" on="1"/>
        <pt x="1200" y="400" on="1"/>
        <pt x="1400" y="200" on="1"/>
        <pt x="1400" y="0" on="1"/>
        <pt x="1200" y="0" on="1"/>
        <pt x="1000" y="200" on="1"/>
        <pt x="600" y="200" on="1"/>
        <pt x="400" y="0" on="1"/>
        <pt x="200" y="0" on="1"/>
        <pt x="200" y="200" on="1"/>
        <pt x="400" y="400" on="1"/>
      </contour>
      <contour>
        <pt x="600" y="800" on="1"/>
        <pt x="600" y="400" on="1"/>
        <pt x="1000" y="400" on="1"/>
        <pt x="1000" y="800" on="1"/>
      </contour>
    </TTGlyph>
    <TTGlyph name="d" xMin="200" yMin="0" xMax="1400" yMax="1200">
      <contour>
        <pt x="1400" y="0" on="1"/>
        <pt x="400" y="0" on="1"/>
        <pt x="200" y="0" on="0"/>
        <pt x="200" y="200" on="1"/>
        <pt x="200" y="600" on="1"/>
        <pt x="200" y="800" on="0"/>
        <pt x="400" y="800" on="1"/>
        <pt x="1000" y="800" on="1"/>
        <pt x="1000" y="1200" on="1"/>
        <pt x="1400" y="1200" on="1"/>
      </contour>
      <contour>
        <pt x="600" y="600" on="1"/>
        <pt x="600" y="200" on="1"/>
        <pt x="1000" y="200" on="1"/>
        <pt x="1000" y="600" on="1"/>
      </contour>
    </TTGlyph>
    <TTGlyph name="dagger" xMin="200" yMin="0" xMax="1400" yMax="1400">
      <contour>
        <pt x="200" y="1200" on="1"/>
        <pt x="600" y="1200" on="1"/>
        <pt x="600" y="1400" on="1"/>
        <pt x="1000" y="1400" on="1"/>
        <pt x="1000" y="1200" on="1"/>
        <pt x="1400" y="1200" on="1"/>
        <pt x="1400" y="1000" on="1"/>
        <pt x="1000" y="1000" on="1"/>
        <pt x="1000" y="200" on="1"/>
        <pt x="800" y="0" on="1"/>
        <pt x="600" y="200" on="1"/>
        <pt x="600" y="1000" on="1"/>
        <pt x="200" y="1000" on="1"/>
      </contour>
    </TTGlyph>
    <TTGlyph name="daggerdbl" xMin="200" yMin="0" xMax="1400" yMax="1400">
      <contour>
        <pt x="200" y="1200" on="1"/>
        <pt x="600" y="1200" on="1"/>
        <pt x="600" y="1400" on="1"/>
        <pt x="1000" y="1400" on="1"/>
        <pt x="1000" y="1200" on="1"/>
        <pt x="1400" y="1200" on="1"/>
        <pt x="1400" y="1000" on="1"/>
        <pt x="1000" y="1000" on="1"/>
        <pt x="1000" y="800" on="1"/>
        <pt x="1400" y="800" on="1"/>
        <pt x="1400" y="600" on="1"/>
        <pt x="1000" y="600" on="1"/>
        <pt x="1000" y="200" on="1"/>
        <pt x="800" y="0" on="1"/>
        <pt x="600" y="200" on="1"/>
        <pt x="600" y="600" on="1"/>
        <pt x="200" y="600" on="1"/>
        <pt x="200" y="800" on="1"/>
        <pt x="600" y="800" on="1"/>
        <pt x="600" y="1000" on="1"/>
        <pt x="200" y="1000" on="1"/>
      </contour>
    </TTGlyph>
    <TTGlyph name="degree" xMin="400" yMin="600" xMax="1200" yMax="1400">
      <contour>
        <pt x="600" y="1400" on="1"/>
        <pt x="1000" y="1400" on="1"/>
        <pt x="1200" y="1400" on="0"/>
        <pt x="1200" y="1200" on="1"/>
        <pt x="1200" y="800" on="1"/>
        <pt x="1200" y="600" on="0"/>
        <pt x="1000" y="600" on="1"/>
        <pt x="598" y="600" on="1"/>
        <pt x="400" y="600" on="0"/>
        <pt x="400" y="800" on="1"/>
        <pt x="400" y="1200" on="1"/>
        <pt x="400" y="1400" on="0"/>
      </contour>
      <contour>
        <pt x="600" y="1200" on="1"/>
        <pt x="600" y="800" on="1"/>
        <pt x="1000" y="800" on="1"/>
        <pt x="1000" y="1200" on="1"/>
      </contour>
    </TTGlyph>
    <TTGlyph name="dieresis" xMin="300" yMin="1600" xMax="900" yMax="1800">
      <contour>
        <pt x="300" y="1800" on="1"/>
        <pt x="500" y="1800" on="1"/>
        <pt x="500" y="1600" on="1"/>
        <pt x="300" y="1600" on="1"/>
      </contour>
      <contour>
        <pt x="700" y="1800" on="1"/>
        <pt x="900" y="1800" on="1"/>
        <pt x="900" y="1600" on="1"/>
        <pt x="700" y="1600" on="1"/>
      </contour>
    </TTGlyph>
    <TTGlyph name="dollar" xMin="200" yMin="0" xMax="1400" yMax="1400">
      <contour>
        <pt x="200" y="400" on="1"/>
        <pt x="1000" y="400" on="1"/>
        <pt x="1000" y="600" on="1"/>
        <pt x="400" y="600" on="1"/>
        <pt x="200" y="600" on="0"/>
        <pt x="200" y="800" on="1"/>
        <pt x="200" y="1000" on="1"/>
        <pt x="200" y="1200" on="0"/>
        <pt x="400" y="1200" on="1"/>
        <pt x="600" y="1200" on="1"/>
        <pt x="600" y="1400" on="1"/>
        <pt x="1000" y="1400" on="1"/>
        <pt x="1000" y="1200" on="1"/>
        <pt x="1400" y="1200" on="1"/>
        <pt x="1400" y="1000" on="1"/>
        <pt x="600" y="1000" on="1"/>
        <pt x="600" y="800" on="1"/>
        <pt x="1200" y="800" on="1"/>
        <pt x="1400" y="800" on="0"/>
        <pt x="1400" y="600" on="1"/>
        <pt x="1400" y="400" on="1"/>
        <pt x="1400" y="200" on="0"/>
        <pt x="1200" y="200" on="1"/>
        <pt x="1000" y="200" on="1"/>
        <pt x="1000" y="0" on="1"/>
        <pt x="600" y="0" on="1"/>
        <pt x="600" y="196" on="1"/>
        <pt x="200" y="196" on="1"/>
      </contour>
    </TTGlyph>
    <TTGlyph name="dotlessi" xMin="400" yMin="1000" xMax="1200" yMax="1800">
      <contour>
        <pt x="600" y="1400" on="1"/>
        <pt x="400" y="1400" on="1"/>
        <pt x="400" y="1600" on="1"/>
        <pt x="600" y="1600" on="1"/>
        <pt x="600" y="1800" on="1"/>
        <pt x="1000" y="1800" on="1"/>
        <pt x="1000" y="1200" on="1"/>
        <pt x="1200" y="1200" on="1"/>
        <pt x="1200" y="1000" on="1"/>
        <pt x="400" y="1000" on="1"/>
        <pt x="400" y="1200" on="1"/>
        <pt x="600" y="1200" on="1"/>
      </contour>
    </TTGlyph>
    <TTGlyph name="e" xMin="200" yMin="0" xMax="1400" yMax="1000">
      <contour>
        <pt x="200" y="800" on="1"/>
        <pt x="200" y="1000" on="0"/>
        <pt x="400" y="1000" on="1"/>
        <pt x="1200" y="1000" on="1"/>
        <pt x="1400" y="1000" on="0"/>
        <pt x="1400" y="800" on="1"/>
        <pt x="1400" y="400" on="1"/>
        <pt x="600" y="400" on="1"/>
        <pt x="600" y="200" on="1"/>
        <pt x="1200" y="200" on="1"/>
        <pt x="1200" y="0" on="1"/>
        <pt x="400" y="0" on="1"/>
        <pt x="200" y="0" on="0"/>
        <pt x="200" y="200" on="1"/>
      </contour>
      <contour>
        <pt x="600" y="800" on="1"/>
        <pt x="600" y="600" on="1"/>
        <pt x="1000" y="600" on="1"/>
        <pt x="1000" y="800" on="1"/>
      </contour>
    </TTGlyph>
    <TTGlyph name="eacute" xMin="200" yMin="0" xMax="1400" yMax="1400">
      <contour>
        <pt x="600" y="800" on="1"/>
        <pt x="600" y="600" on="1"/>
        <pt x="1000" y="600" on="1"/>
        <pt x="1000" y="800" on="1"/>
      </contour>
      <contour>
        <pt x="800" y="1200" on="1"/>
        <pt x="600" y="1200" on="1"/>
        <pt x="800" y="1400" on="1"/>
        <pt x="1000" y="1400" on="1"/>
      </contour>
      <contour>
        <pt x="200" y="800" on="1"/>
        <pt x="200" y="1000" on="0"/>
        <pt x="400" y="1000" on="1"/>
        <pt x="1200" y="1000" on="1"/>
        <pt x="1400" y="1000" on="0"/>
        <pt x="1400" y="800" on="1"/>
        <pt x="1400" y="400" on="1"/>
        <pt x="600" y="400" on="1"/>
        <pt x="600" y="200" on="1"/>
        <pt x="1200" y="200" on="1"/>
        <pt x="1200" y="0" on="1"/>
        <pt x="400" y="0" on="1"/>
        <pt x="200" y="0" on="0"/>
        <pt x="200" y="200" on="1"/>
      </contour>
    </TTGlyph>
    <TTGlyph name="ecircumflex" xMin="200" yMin="0" xMax="1400" yMax="1400">
      <contour>
        <pt x="600" y="800" on="1"/>
        <pt x="600" y="600" on="1"/>
        <pt x="1000" y="600" on="1"/>
        <pt x="1000" y="800" on="1"/>
      </contour>
      <contour>
        <pt x="900" y="1200" on="1"/>
        <pt x="800" y="1300" on="1"/>
        <pt x="700" y="1200" on="1"/>
        <pt x="500" y="1200" on="1"/>
        <pt x="700" y="1400" on="1"/>
        <pt x="900" y="1400" on="1"/>
        <pt x="1100" y="1200" on="1"/>
      </contour>
      <contour>
        <pt x="200" y="800" on="1"/>
        <pt x="200" y="1000" on="0"/>
        <pt x="400" y="1000" on="1"/>
        <pt x="1200" y="1000" on="1"/>
        <pt x="1400" y="1000" on="0"/>
        <pt x="1400" y="800" on="1"/>
        <pt x="1400" y="400" on="1"/>
        <pt x="600" y="400" on="1"/>
        <pt x="600" y="200" on="1"/>
        <pt x="1200" y="200" on="1"/>
        <pt x="1200" y="0" on="1"/>
        <pt x="400" y="0" on="1"/>
        <pt x="200" y="0" on="0"/>
        <pt x="200" y="200" on="1"/>
      </contour>
    </TTGlyph>
    <TTGlyph name="edieresis" xMin="200" yMin="0" xMax="1400" yMax="1402">
      <contour>
        <pt x="600" y="800" on="1"/>
        <pt x="600" y="600" on="1"/>
        <pt x="1000" y="600" on="1"/>
        <pt x="1000" y="800" on="1"/>
      </contour>
      <contour>
        <pt x="500" y="1396" on="1"/>
        <pt x="696" y="1396" on="1"/>
        <pt x="696" y="1200" on="1"/>
        <pt x="500" y="1200" on="1"/>
      </contour>
      <contour>
        <pt x="896" y="1402" on="1"/>
        <pt x="1092" y="1402" on="1"/>
        <pt x="1092" y="1206" on="1"/>
        <pt x="896" y="1206" on="1"/>
      </contour>
      <contour>
        <pt x="200" y="800" on="1"/>
        <pt x="200" y="1000" on="0"/>
        <pt x="400" y="1000" on="1"/>
        <pt x="1200" y="1000" on="1"/>
        <pt x="1400" y="1000" on="0"/>
        <pt x="1400" y="800" on="1"/>
        <pt x="1400" y="400" on="1"/>
        <pt x="600" y="400" on="1"/>
        <pt x="600" y="200" on="1"/>
        <pt x="1200" y="200" on="1"/>
        <pt x="1200" y="0" on="1"/>
        <pt x="400" y="0" on="1"/>
        <pt x="200" y="0" on="0"/>
        <pt x="200" y="200" on="1"/>
      </contour>
    </TTGlyph>
    <TTGlyph name="egrave" xMin="200" yMin="0" xMax="1400" yMax="1400">
      <contour>
        <pt x="600" y="800" on="1"/>
        <pt x="600" y="600" on="1"/>
        <pt x="1000" y="600" on="1"/>
        <pt x="1000" y="800" on="1"/>
      </contour>
      <contour>
        <pt x="600" y="1400" on="1"/>
        <pt x="800" y="1400" on="1"/>
        <pt x="1000" y="1200" on="1"/>
        <pt x="800" y="1200" on="1"/>
      </contour>
      <contour>
        <pt x="200" y="800" on="1"/>
        <pt x="200" y="1000" on="0"/>
        <pt x="400" y="1000" on="1"/>
        <pt x="1200" y="1000" on="1"/>
        <pt x="1400" y="1000" on="0"/>
        <pt x="1400" y="800" on="1"/>
        <pt x="1400" y="400" on="1"/>
        <pt x="600" y="400" on="1"/>
        <pt x="600" y="200" on="1"/>
        <pt x="1200" y="200" on="1"/>
        <pt x="1200" y="0" on="1"/>
        <pt x="400" y="0" on="1"/>
        <pt x="200" y="0" on="0"/>
        <pt x="200" y="200" on="1"/>
      </contour>
    </TTGlyph>
    <TTGlyph name="eight" xMin="200" yMin="0" xMax="1400" yMax="1400">
      <contour>
        <pt x="200" y="600" on="1"/>
        <pt x="300" y="600" on="0"/>
        <pt x="300" y="800" on="0"/>
        <pt x="200" y="800" on="1"/>
        <pt x="200" y="1200" on="1"/>
        <pt x="200" y="1400" on="0"/>
        <pt x="400" y="1400" on="1"/>
        <pt x="1200" y="1400" on="1"/>
        <pt x="1400" y="1400" on="0"/>
        <pt x="1400" y="1200" on="1"/>
        <pt x="1400" y="800" on="1"/>
        <pt x="1300" y="800" on="0"/>
        <pt x="1300" y="600" on="0"/>
        <pt x="1400" y="600" on="1"/>
        <pt x="1400" y="200" on="1"/>
        <pt x="1400" y="0" on="0"/>
        <pt x="1200" y="0" on="1"/>
        <pt x="400" y="0" on="1"/>
        <pt x="200" y="0" on="0"/>
        <pt x="200" y="200" on="1"/>
      </contour>
      <contour>
        <pt x="600" y="600" on="1"/>
        <pt x="600" y="200" on="1"/>
        <pt x="1000" y="200" on="1"/>
        <pt x="1000" y="600" on="1"/>
      </contour>
      <contour>
        <pt x="600" y="1200" on="1"/>
        <pt x="600" y="800" on="1"/>
        <pt x="1000" y="800" on="1"/>
        <pt x="1000" y="1200" on="1"/>
      </contour>
    </TTGlyph>
    <TTGlyph name="ellipsis" xMin="0" yMin="0" xMax="1600" yMax="400">
      <contour>
        <pt x="600" y="400" on="1"/>
        <pt x="1000" y="400" on="1"/>
        <pt x="1000" y="0" on="1"/>
        <pt x="600" y="0" on="1"/>
      </contour>
      <contour>
        <pt x="1200" y="400" on="1"/>
        <pt x="1600" y="400" on="1"/>
        <pt x="1600" y="0" on="1"/>
        <pt x="1200" y="0" on="1"/>
      </contour>
      <contour>
        <pt x="0" y="400" on="1"/>
        <pt x="400" y="400" on="1"/>
        <pt x="400" y="0" on="1"/>
        <pt x="0" y="0" on="1"/>
      </contour>
    </TTGlyph>
    <TTGlyph name="emdash" xMin="200" yMin="400" xMax="1400" yMax="600">
      <contour>
        <pt x="200" y="600" on="1"/>
        <pt x="1400" y="600" on="1"/>
        <pt x="1400" y="400" on="1"/>
        <pt x="200" y="400" on="1"/>
      </contour>
    </TTGlyph>
    <TTGlyph name="endash" xMin="200" yMin="400" xMax="1000" yMax="600">
      <contour>
        <pt x="200" y="600" on="1"/>
        <pt x="1000" y="600" on="1"/>
        <pt x="1000" y="400" on="1"/>
        <pt x="200" y="400" on="1"/>
      </contour>
    </TTGlyph>
    <TTGlyph name="equal" xMin="200" yMin="400" xMax="1400" yMax="1000">
      <contour>
        <pt x="200" y="1000" on="1"/>
        <pt x="1400" y="1000" on="1"/>
        <pt x="1400" y="800" on="1"/>
        <pt x="200" y="800" on="1"/>
      </contour>
      <contour>
        <pt x="200" y="600" on="1"/>
        <pt x="1400" y="600" on="1"/>
        <pt x="1400" y="400" on="1"/>
        <pt x="200" y="400" on="1"/>
      </contour>
    </TTGlyph>
    <TTGlyph name="exclam" xMin="600" yMin="0" xMax="1000" yMax="1400">
      <contour>
        <pt x="600" y="1400" on="1"/>
        <pt x="1000" y="1400" on="1"/>
        <pt x="1000" y="400" on="1"/>
        <pt x="600" y="400" on="1"/>
      </contour>
      <contour>
        <pt x="600" y="200" on="1"/>
        <pt x="1000" y="200" on="1"/>
        <pt x="1000" y="0" on="1"/>
        <pt x="600" y="0" on="1"/>
      </contour>
    </TTGlyph>
    <TTGlyph name="exclamdown" xMin="600" yMin="0" xMax="1000" yMax="1400">
      <contour>
        <pt x="600" y="1000" on="1"/>
        <pt x="1000" y="1000" on="1"/>
        <pt x="1000" y="0" on="1"/>
        <pt x="600" y="0" on="1"/>
      </contour>
      <contour>
        <pt x="600" y="1400" on="1"/>
        <pt x="1000" y="1400" on="1"/>
        <pt x="1000" y="1200" on="1"/>
        <pt x="600" y="1200" on="1"/>
      </contour>
    </TTGlyph>
    <TTGlyph name="f" xMin="400" yMin="0" xMax="1400" yMax="1200">
      <contour>
        <pt x="800" y="1200" on="1"/>
        <pt x="1400" y="1200" on="1"/>
        <pt x="1400" y="1000" on="1"/>
        <pt x="1000" y="1000" on="1"/>
        <pt x="1000" y="800" on="1"/>
        <pt x="1400" y="800" on="1"/>
        <pt x="1400" y="600" on="1"/>
        <pt x="1000" y="600" on="1"/>
        <pt x="1000" y="0" on="1"/>
        <pt x="600" y="0" on="1"/>
        <pt x="600" y="600" on="1"/>
        <pt x="400" y="600" on="1"/>
        <pt x="400" y="800" on="1"/>
        <pt x="600" y="800" on="1"/>
        <pt x="600" y="1000" on="1"/>
        <pt x="600" y="1200" on="0"/>
      </contour>
    </TTGlyph>
    <TTGlyph name="five" xMin="200" yMin="0" xMax="1400" yMax="1400">
      <contour>
        <pt x="200" y="400" on="1"/>
        <pt x="600" y="400" on="1"/>
        <pt x="600" y="200" on="1"/>
        <pt x="1000" y="200" on="1"/>
        <pt x="1000" y="800" on="1"/>
        <pt x="200" y="800" on="1"/>
        <pt x="200" y="1400" on="1"/>
        <pt x="1400" y="1400" on="1"/>
        <pt x="1400" y="1200" on="1"/>
        <pt x="600" y="1200" on="1"/>
        <pt x="600" y="1000" on="1"/>
        <pt x="1200" y="1000" on="1"/>
        <pt x="1400" y="1000" on="0"/>
        <pt x="1400" y="800" on="1"/>
        <pt x="1400" y="200" on="1"/>
        <pt x="1400" y="0" on="0"/>
        <pt x="1200" y="0" on="1"/>
        <pt x="400" y="0" on="1"/>
        <pt x="200" y="0" on="0"/>
        <pt x="200" y="200" on="1"/>
      </contour>
    </TTGlyph>
    <TTGlyph name="florin" xMin="200" yMin="0" xMax="1400" yMax="1400">
      <contour>
        <pt x="400" y="1400" on="0"/>
        <pt x="600" y="1400" on="1"/>
        <pt x="1200" y="1400" on="1"/>
        <pt x="1400" y="1400" on="0"/>
        <pt x="1400" y="1200" on="1"/>
        <pt x="1400" y="1000" on="1"/>
        <pt x="1000" y="1000" on="1"/>
        <pt x="1000" y="1200" on="1"/>
        <pt x="800" y="1200" on="1"/>
        <pt x="800" y="800" on="1"/>
        <pt x="1200" y="800" on="1"/>
        <pt x="1200" y="600" on="1"/>
        <pt x="800" y="600" on="1"/>
        <pt x="800" y="0" on="1"/>
        <pt x="400" y="0" on="1"/>
        <pt x="400" y="600" on="1"/>
        <pt x="200" y="600" on="1"/>
        <pt x="200" y="800" on="1"/>
        <pt x="400" y="800" on="1"/>
        <pt x="400" y="1200" on="1"/>
      </contour>
    </TTGlyph>
    <TTGlyph name="four" xMin="200" yMin="0" xMax="1600" yMax="1400">
      <contour>
        <pt x="200" y="800" on="1"/>
        <pt x="400" y="800" on="1"/>
        <pt x="1000" y="1400" on="1"/>
        <pt x="1400" y="1400" on="1"/>
        <pt x="1400" y="600" on="1"/>
        <pt x="1600" y="600" on="1"/>
        <pt x="1600" y="400" on="1"/>
        <pt x="1400" y="400" on="1"/>
        <pt x="1400" y="0" on="1"/>
        <pt x="1000" y="0" on="1"/>
        <pt x="1000" y="400" on="1"/>
        <pt x="200" y="400" on="1"/>
      </contour>
      <contour>
        <pt x="600" y="600" on="1"/>
        <pt x="1000" y="600" on="1"/>
        <pt x="1000" y="1000" on="1"/>
        <pt x="800" y="800" on="1"/>
      </contour>
    </TTGlyph>
    <TTGlyph name="g" xMin="200" yMin="-200" xMax="1400" yMax="1000">
      <contour>
        <pt x="200" y="200" on="0"/>
        <pt x="200" y="400" on="1"/>
        <pt x="200" y="800" on="1"/>
        <pt x="200" y="1000" on="0"/>
        <pt x="400" y="1000" on="1"/>
        <pt x="1400" y="1000" on="1"/>
        <pt x="1400" y="0" on="1"/>
        <pt x="1400" y="-200" on="0"/>
        <pt x="1200" y="-200" on="1"/>
        <pt x="200" y="-200" on="1"/>
        <pt x="200" y="0" on="1"/>
        <pt x="1000" y="0" on="1"/>
        <pt x="1000" y="200" on="1"/>
        <pt x="400" y="200" on="1"/>
      </contour>
      <contour>
        <pt x="600" y="800" on="1"/>
        <pt x="600" y="400" on="1"/>
        <pt x="1000" y="400" on="1"/>
        <pt x="1000" y="800" on="1"/>
      </contour>
    </TTGlyph>
    <TTGlyph name="germandbls" xMin="100" yMin="0" xMax="1173" yMax="1392">
      <contour>
        <pt x="355" y="1128" on="1"/>
        <pt x="360" y="1143" on="1"/>
        <pt x="343" y="1141" on="1"/>
        <pt x="333" y="1141" on="0"/>
        <pt x="314" y="1080" on="1"/>
        <pt x="311" y="1029" on="0"/>
        <pt x="297" y="993" on="1"/>
        <pt x="297" y="982" on="1"/>
        <pt x="307" y="970" on="1"/>
        <pt x="405" y="930" on="0"/>
        <pt x="410" y="916" on="1"/>
        <pt x="418" y="892" on="1"/>
        <pt x="414" y="864" on="1"/>
        <pt x="410" y="860" on="1"/>
        <pt x="398" y="860" on="1"/>
        <pt x="398" y="870" on="1"/>
        <pt x="409" y="875" on="0"/>
        <pt x="405" y="883" on="1"/>
        <pt x="398" y="883" on="0"/>
        <pt x="400" y="903" on="1"/>
        <pt x="395" y="900" on="1"/>
        <pt x="392" y="890" on="1"/>
        <pt x="372" y="894" on="1"/>
        <pt x="360" y="886" on="0"/>
        <pt x="352" y="892" on="1"/>
        <pt x="352" y="885" on="1"/>
        <pt x="338" y="889" on="0"/>
        <pt x="324" y="883" on="1"/>
        <pt x="324" y="873" on="1"/>
        <pt x="316" y="873" on="1"/>
        <pt x="316" y="862" on="1"/>
        <pt x="311" y="860" on="1"/>
        <pt x="311" y="862" on="1"/>
        <pt x="311" y="807" on="0"/>
        <pt x="302" y="788" on="1"/>
        <pt x="302" y="751" on="1"/>
        <pt x="314" y="712" on="1"/>
        <pt x="324" y="700" on="0"/>
        <pt x="328" y="681" on="1"/>
        <pt x="360" y="632" on="0"/>
        <pt x="381" y="588" on="1"/>
        <pt x="400" y="538" on="1"/>
        <pt x="405" y="492" on="1"/>
        <pt x="409" y="486" on="1"/>
        <pt x="407" y="476" on="0"/>
        <pt x="414" y="460" on="1"/>
        <pt x="438" y="438" on="1"/>
        <pt x="449" y="430" on="0"/>
        <pt x="505" y="418" on="1"/>
        <pt x="540" y="417" on="0"/>
        <pt x="560" y="430" on="1"/>
        <pt x="571" y="440" on="1"/>
        <pt x="591" y="442" on="0"/>
        <pt x="717" y="522" on="1"/>
        <pt x="777" y="575" on="0"/>
        <pt x="788" y="583" on="1"/>
        <pt x="808" y="611" on="1"/>
        <pt x="837" y="688" on="1"/>
        <pt x="837" y="708" on="1"/>
        <pt x="846" y="710" on="1"/>
        <pt x="854" y="719" on="1"/>
        <pt x="854" y="723" on="1"/>
        <pt x="843" y="723" on="1"/>
        <pt x="841" y="739" on="1"/>
        <pt x="846" y="744" on="1"/>
        <pt x="850" y="783" on="1"/>
        <pt x="849" y="825" on="1"/>
        <pt x="860" y="837" on="1"/>
        <pt x="870" y="836" on="1"/>
        <pt x="872" y="807" on="1"/>
        <pt x="866" y="783" on="0"/>
        <pt x="866" y="754" on="1"/>
        <pt x="859" y="727" on="1"/>
        <pt x="867" y="731" on="1"/>
        <pt x="886" y="727" on="0"/>
        <pt x="913" y="740" on="1"/>
        <pt x="963" y="782" on="0"/>
        <pt x="963" y="794" on="1"/>
        <pt x="985" y="864" on="1"/>
        <pt x="990" y="868" on="1"/>
        <pt x="985" y="924" on="1"/>
        <pt x="980" y="938" on="0"/>
        <pt x="963" y="947" on="1"/>
        <pt x="934" y="941" on="1"/>
        <pt x="924" y="930" on="0"/>
        <pt x="920" y="933" on="1"/>
        <pt x="916" y="924" on="1"/>
        <pt x="905" y="926" on="0"/>
        <pt x="903" y="920" on="1"/>
        <pt x="893" y="901" on="1"/>
        <pt x="886" y="900" on="1"/>
        <pt x="891" y="896" on="0"/>
        <pt x="885" y="890" on="1"/>
        <pt x="867" y="896" on="1"/>
        <pt x="881" y="909" on="1"/>
        <pt x="881" y="918" on="0"/>
        <pt x="889" y="920" on="1"/>
        <pt x="886" y="930" on="1"/>
        <pt x="867" y="948" on="1"/>
        <pt x="870" y="938" on="0"/>
        <pt x="854" y="933" on="1"/>
        <pt x="837" y="936" on="1"/>
        <pt x="829" y="945" on="1"/>
        <pt x="832" y="947" on="1"/>
        <pt x="816" y="959" on="1"/>
        <pt x="802" y="982" on="1"/>
        <pt x="765" y="1013" on="1"/>
        <pt x="766" y="1024" on="1"/>
        <pt x="763" y="1027" on="1"/>
        <pt x="761" y="1076" on="1"/>
        <pt x="753" y="1086" on="1"/>
        <pt x="744" y="1116" on="0"/>
        <pt x="742" y="1154" on="1"/>
        <pt x="735" y="1150" on="1"/>
        <pt x="715" y="1168" on="1"/>
        <pt x="691" y="1172" on="1"/>
        <pt x="682" y="1166" on="1"/>
        <pt x="672" y="1166" on="1"/>
        <pt x="674" y="1159" on="0"/>
        <pt x="664" y="1159" on="1"/>
        <pt x="653" y="1166" on="0"/>
        <pt x="489" y="1154" on="1"/>
        <pt x="472" y="1148" on="1"/>
        <pt x="452" y="1150" on="0"/>
        <pt x="441" y="1144" on="1"/>
        <pt x="440" y="1141" on="1"/>
        <pt x="422" y="1139" on="1"/>
        <pt x="402" y="1129" on="1"/>
        <pt x="381" y="1109" on="1"/>
        <pt x="369" y="1110" on="1"/>
        <pt x="368" y="1118" on="0"/>
        <pt x="392" y="1144" on="1"/>
        <pt x="380" y="1141" on="1"/>
        <pt x="369" y="1126" on="1"/>
      </contour>
      <contour>
        <pt x="398" y="852" on="1"/>
        <pt x="407" y="852" on="1"/>
        <pt x="398" y="827" on="1"/>
        <pt x="402" y="824" on="0"/>
        <pt x="398" y="809" on="1"/>
        <pt x="392" y="798" on="1"/>
        <pt x="392" y="789" on="1"/>
        <pt x="377" y="751" on="1"/>
        <pt x="377" y="744" on="1"/>
        <pt x="369" y="733" on="1"/>
        <pt x="364" y="719" on="1"/>
        <pt x="387" y="699" on="1"/>
        <pt x="422" y="688" on="1"/>
        <pt x="441" y="692" on="0"/>
        <pt x="448" y="688" on="1"/>
        <pt x="469" y="675" on="1"/>
        <pt x="464" y="666" on="1"/>
        <pt x="449" y="666" on="1"/>
        <pt x="433" y="673" on="1"/>
        <pt x="412" y="672" on="1"/>
        <pt x="395" y="684" on="0"/>
        <pt x="386" y="680" on="1"/>
        <pt x="395" y="666" on="1"/>
        <pt x="410" y="657" on="1"/>
        <pt x="441" y="649" on="1"/>
        <pt x="445" y="643" on="1"/>
        <pt x="491" y="651" on="0"/>
        <pt x="512" y="645" on="1"/>
        <pt x="563" y="645" on="1"/>
        <pt x="613" y="653" on="1"/>
        <pt x="622" y="649" on="0"/>
        <pt x="624" y="643" on="1"/>
        <pt x="627" y="634" on="0"/>
        <pt x="621" y="632" on="1"/>
        <pt x="611" y="632" on="1"/>
        <pt x="606" y="620" on="0"/>
        <pt x="584" y="607" on="1"/>
        <pt x="576" y="609" on="1"/>
        <pt x="567" y="596" on="1"/>
        <pt x="550" y="596" on="1"/>
        <pt x="529" y="584" on="1"/>
        <pt x="512" y="586" on="0"/>
        <pt x="486" y="580" on="1"/>
        <pt x="440" y="584" on="0"/>
        <pt x="423" y="599" on="1"/>
        <pt x="425" y="592" on="1"/>
        <pt x="433" y="581" on="1"/>
        <pt x="469" y="560" on="1"/>
        <pt x="469" y="550" on="1"/>
        <pt x="454" y="550" on="1"/>
        <pt x="454" y="556" on="0"/>
        <pt x="435" y="556" on="1"/>
        <pt x="429" y="561" on="1"/>
        <pt x="425" y="561" on="1"/>
        <pt x="425" y="552" on="1"/>
        <pt x="435" y="552" on="0"/>
        <pt x="440" y="541" on="1"/>
        <pt x="440" y="530" on="1"/>
        <pt x="435" y="527" on="1"/>
        <pt x="423" y="526" on="0"/>
        <pt x="418" y="531" on="1"/>
        <pt x="417" y="542" on="1"/>
        <pt x="409" y="553" on="1"/>
        <pt x="412" y="567" on="0"/>
        <pt x="398" y="611" on="1"/>
        <pt x="398" y="620" on="1"/>
        <pt x="407" y="628" on="1"/>
        <pt x="402" y="642" on="1"/>
        <pt x="387" y="654" on="1"/>
        <pt x="355" y="672" on="1"/>
        <pt x="352" y="684" on="0"/>
        <pt x="360" y="688" on="1"/>
        <pt x="369" y="688" on="1"/>
        <pt x="374" y="677" on="0"/>
        <pt x="381" y="681" on="1"/>
        <pt x="369" y="703" on="0"/>
        <pt x="349" y="703" on="1"/>
        <pt x="347" y="712" on="1"/>
        <pt x="360" y="721" on="1"/>
        <pt x="350" y="729" on="0"/>
        <pt x="357" y="744" on="1"/>
        <pt x="364" y="749" on="0"/>
        <pt x="372" y="773" on="1"/>
        <pt x="377" y="798" on="1"/>
        <pt x="383" y="809" on="1"/>
        <pt x="380" y="814" on="0"/>
        <pt x="392" y="836" on="1"/>
        <pt x="391" y="843" on="1"/>
      </contour>
      <contour>
        <pt x="435" y="712" on="1"/>
        <pt x="444" y="706" on="0"/>
        <pt x="452" y="708" on="1"/>
        <pt x="501" y="710" on="1"/>
        <pt x="516" y="721" on="1"/>
        <pt x="517" y="733" on="1"/>
        <pt x="529" y="733" on="1"/>
        <pt x="530" y="727" on="1"/>
        <pt x="530" y="718" on="1"/>
        <pt x="501" y="688" on="1"/>
        <pt x="489" y="685" on="0"/>
        <pt x="493" y="680" on="1"/>
        <pt x="480" y="677" on="0"/>
        <pt x="479" y="684" on="1"/>
        <pt x="479" y="688" on="1"/>
        <pt x="489" y="699" on="1"/>
        <pt x="455" y="691" on="0"/>
        <pt x="440" y="699" on="1"/>
        <pt x="423" y="692" on="1"/>
        <pt x="417" y="695" on="1"/>
        <pt x="417" y="706" on="1"/>
      </contour>
      <contour>
        <pt x="565" y="727" on="1"/>
        <pt x="576" y="725" on="1"/>
        <pt x="591" y="714" on="0"/>
        <pt x="617" y="685" on="1"/>
        <pt x="647" y="670" on="0"/>
        <pt x="655" y="647" on="1"/>
        <pt x="653" y="627" on="1"/>
        <pt x="643" y="627" on="1"/>
        <pt x="642" y="632" on="1"/>
        <pt x="643" y="639" on="1"/>
        <pt x="635" y="658" on="1"/>
        <pt x="613" y="670" on="0"/>
        <pt x="614" y="672" on="1"/>
        <pt x="604" y="675" on="1"/>
        <pt x="565" y="716" on="1"/>
        <pt x="561" y="721" on="0"/>
      </contour>
      <contour>
        <pt x="483" y="594" on="1"/>
        <pt x="501" y="594" on="1"/>
        <pt x="503" y="599" on="1"/>
        <pt x="510" y="602" on="0"/>
        <pt x="522" y="594" on="1"/>
        <pt x="538" y="596" on="0"/>
        <pt x="543" y="605" on="1"/>
        <pt x="560" y="605" on="1"/>
        <pt x="563" y="614" on="1"/>
        <pt x="590" y="627" on="1"/>
        <pt x="590" y="634" on="1"/>
        <pt x="569" y="629" on="1"/>
        <pt x="567" y="627" on="1"/>
        <pt x="565" y="629" on="1"/>
        <pt x="543" y="628" on="1"/>
        <pt x="545" y="624" on="1"/>
        <pt x="543" y="627" on="1"/>
        <pt x="534" y="624" on="1"/>
        <pt x="529" y="629" on="0"/>
        <pt x="519" y="629" on="1"/>
        <pt x="505" y="620" on="1"/>
        <pt x="491" y="628" on="1"/>
        <pt x="475" y="619" on="0"/>
        <pt x="464" y="623" on="1"/>
        <pt x="466" y="628" on="0"/>
        <pt x="440" y="627" on="1"/>
        <pt x="429" y="634" on="1"/>
        <pt x="425" y="632" on="1"/>
        <pt x="433" y="627" on="0"/>
        <pt x="433" y="614" on="1"/>
        <pt x="445" y="599" on="1"/>
      </contour>
      <contour>
        <pt x="479" y="568" on="1"/>
        <pt x="489" y="568" on="1"/>
        <pt x="495" y="565" on="1"/>
        <pt x="503" y="567" on="0"/>
        <pt x="514" y="565" on="1"/>
        <pt x="512" y="552" on="0"/>
        <pt x="491" y="550" on="1"/>
        <pt x="476" y="550" on="1"/>
      </contour>
      <contour>
        <pt x="553" y="890" on="1"/>
        <pt x="553" y="886" on="1"/>
        <pt x="591" y="877" on="1"/>
        <pt x="600" y="871" on="0"/>
        <pt x="594" y="866" on="1"/>
        <pt x="576" y="870" on="1"/>
        <pt x="561" y="868" on="1"/>
        <pt x="540" y="881" on="0"/>
        <pt x="545" y="886" on="1"/>
        <pt x="536" y="886" on="1"/>
        <pt x="534" y="879" on="1"/>
        <pt x="526" y="881" on="1"/>
        <pt x="519" y="898" on="0"/>
        <pt x="574" y="915" on="1"/>
        <pt x="614" y="911" on="1"/>
        <pt x="672" y="885" on="1"/>
        <pt x="674" y="875" on="0"/>
        <pt x="666" y="873" on="1"/>
        <pt x="651" y="873" on="1"/>
        <pt x="646" y="879" on="1"/>
        <pt x="633" y="883" on="1"/>
        <pt x="621" y="879" on="1"/>
        <pt x="594" y="879" on="1"/>
        <pt x="579" y="900" on="1"/>
        <pt x="555" y="896" on="0"/>
      </contour>
      <contour>
        <pt x="596" y="968" on="1"/>
        <pt x="614" y="963" on="0"/>
        <pt x="622" y="968" on="1"/>
        <pt x="631" y="960" on="0"/>
        <pt x="642" y="960" on="1"/>
        <pt x="666" y="967" on="1"/>
        <pt x="674" y="963" on="1"/>
        <pt x="679" y="951" on="0"/>
        <pt x="658" y="947" on="1"/>
        <pt x="621" y="947" on="0"/>
        <pt x="617" y="957" on="1"/>
        <pt x="545" y="932" on="1"/>
        <pt x="532" y="932" on="0"/>
        <pt x="512" y="923" on="1"/>
        <pt x="491" y="923" on="1"/>
        <pt x="479" y="914" on="0"/>
        <pt x="475" y="926" on="1"/>
        <pt x="476" y="933" on="1"/>
        <pt x="485" y="932" on="0"/>
        <pt x="495" y="945" on="1"/>
        <pt x="545" y="953" on="1"/>
        <pt x="548" y="959" on="0"/>
        <pt x="569" y="957" on="1"/>
        <pt x="574" y="967" on="0"/>
      </contour>
      <contour>
        <pt x="448" y="932" on="1"/>
        <pt x="458" y="932" on="0"/>
        <pt x="469" y="923" on="1"/>
        <pt x="470" y="911" on="0"/>
        <pt x="462" y="909" on="1"/>
        <pt x="455" y="909" on="1"/>
        <pt x="441" y="920" on="1"/>
        <pt x="440" y="930" on="0"/>
      </contour>
      <contour>
        <pt x="302" y="933" on="1"/>
        <pt x="320" y="938" on="0"/>
        <pt x="330" y="933" on="1"/>
        <pt x="330" y="926" on="1"/>
        <pt x="321" y="923" on="1"/>
        <pt x="324" y="920" on="1"/>
        <pt x="337" y="929" on="0"/>
        <pt x="368" y="920" on="1"/>
        <pt x="377" y="909" on="1"/>
        <pt x="383" y="915" on="1"/>
        <pt x="376" y="918" on="0"/>
        <pt x="368" y="924" on="1"/>
        <pt x="352" y="926" on="1"/>
        <pt x="343" y="936" on="1"/>
        <pt x="320" y="944" on="1"/>
        <pt x="310" y="953" on="1"/>
        <pt x="302" y="955" on="0"/>
        <pt x="297" y="947" on="1"/>
      </contour>
      <contour>
        <pt x="347" y="894" on="1"/>
        <pt x="350" y="894" on="1"/>
        <pt x="347" y="909" on="1"/>
        <pt x="334" y="914" on="0"/>
        <pt x="328" y="901" on="1"/>
      </contour>
      <contour>
        <pt x="951" y="940" on="1"/>
        <pt x="977" y="940" on="0"/>
        <pt x="977" y="930" on="1"/>
        <pt x="977" y="923" on="1"/>
        <pt x="959" y="929" on="1"/>
        <pt x="920" y="894" on="1"/>
        <pt x="920" y="879" on="0"/>
        <pt x="913" y="877" on="1"/>
        <pt x="912" y="860" on="1"/>
        <pt x="901" y="843" on="1"/>
        <pt x="903" y="812" on="1"/>
        <pt x="891" y="788" on="1"/>
        <pt x="912" y="794" on="1"/>
        <pt x="924" y="794" on="1"/>
        <pt x="930" y="809" on="1"/>
        <pt x="939" y="812" on="0"/>
        <pt x="939" y="807" on="1"/>
        <pt x="932" y="794" on="1"/>
        <pt x="925" y="794" on="1"/>
        <pt x="917" y="782" on="1"/>
        <pt x="889" y="779" on="0"/>
        <pt x="885" y="769" on="1"/>
        <pt x="872" y="767" on="0"/>
        <pt x="870" y="774" on="1"/>
        <pt x="886" y="812" on="1"/>
        <pt x="886" y="847" on="1"/>
        <pt x="895" y="854" on="1"/>
        <pt x="891" y="858" on="0"/>
        <pt x="895" y="871" on="1"/>
        <pt x="903" y="881" on="1"/>
        <pt x="899" y="890" on="0"/>
        <pt x="912" y="907" on="1"/>
      </contour>
      <contour>
        <pt x="922" y="870" on="1"/>
        <pt x="934" y="870" on="0"/>
        <pt x="936" y="862" on="1"/>
        <pt x="939" y="848" on="0"/>
        <pt x="932" y="843" on="1"/>
        <pt x="924" y="844" on="1"/>
        <pt x="916" y="860" on="1"/>
        <pt x="913" y="870" on="0"/>
      </contour>
      <contour>
        <pt x="954" y="915" on="1"/>
        <pt x="967" y="916" on="0"/>
        <pt x="969" y="903" on="1"/>
        <pt x="977" y="858" on="1"/>
        <pt x="963" y="803" on="1"/>
        <pt x="956" y="801" on="1"/>
        <pt x="953" y="807" on="1"/>
        <pt x="966" y="858" on="0"/>
        <pt x="961" y="864" on="1"/>
        <pt x="951" y="903" on="0"/>
      </contour>
      <contour>
        <pt x="628" y="282" on="1"/>
        <pt x="759" y="286" on="0"/>
        <pt x="802" y="334" on="1"/>
        <pt x="815" y="336" on="1"/>
        <pt x="829" y="349" on="1"/>
        <pt x="833" y="349" on="1"/>
        <pt x="824" y="355" on="1"/>
        <pt x="837" y="375" on="1"/>
        <pt x="848" y="406" on="1"/>
        <pt x="854" y="411" on="1"/>
        <pt x="867" y="453" on="0"/>
        <pt x="874" y="457" on="1"/>
        <pt x="889" y="497" on="1"/>
        <pt x="903" y="514" on="1"/>
        <pt x="895" y="519" on="1"/>
        <pt x="891" y="537" on="1"/>
        <pt x="878" y="550" on="1"/>
        <pt x="878" y="552" on="1"/>
        <pt x="877" y="488" on="0"/>
        <pt x="870" y="476" on="1"/>
        <pt x="859" y="445" on="1"/>
        <pt x="848" y="445" on="1"/>
        <pt x="848" y="463" on="1"/>
        <pt x="854" y="472" on="1"/>
        <pt x="860" y="495" on="1"/>
        <pt x="855" y="499" on="1"/>
        <pt x="850" y="545" on="0"/>
        <pt x="855" y="575" on="1"/>
        <pt x="848" y="628" on="1"/>
        <pt x="841" y="627" on="1"/>
        <pt x="812" y="575" on="1"/>
        <pt x="780" y="552" on="1"/>
        <pt x="731" y="508" on="1"/>
        <pt x="722" y="507" on="1"/>
        <pt x="717" y="499" on="1"/>
        <pt x="672" y="474" on="1"/>
        <pt x="650" y="457" on="1"/>
        <pt x="594" y="427" on="1"/>
        <pt x="581" y="425" on="1"/>
        <pt x="561" y="406" on="0"/>
        <pt x="529" y="402" on="1"/>
        <pt x="529" y="399" on="1"/>
        <pt x="538" y="391" on="1"/>
        <pt x="538" y="377" on="0"/>
        <pt x="548" y="364" on="1"/>
        <pt x="567" y="356" on="1"/>
        <pt x="567" y="351" on="1"/>
        <pt x="519" y="351" on="1"/>
        <pt x="524" y="377" on="0"/>
        <pt x="519" y="387" on="1"/>
        <pt x="503" y="391" on="1"/>
        <pt x="483" y="391" on="1"/>
        <pt x="441" y="340" on="1"/>
        <pt x="438" y="340" on="1"/>
        <pt x="448" y="338" on="1"/>
        <pt x="452" y="323" on="0"/>
        <pt x="458" y="323" on="1"/>
        <pt x="470" y="282" on="0"/>
      </contour>
      <contour>
        <pt x="400" y="1313" on="1"/>
        <pt x="409" y="1309" on="1"/>
        <pt x="429" y="1331" on="1"/>
        <pt x="449" y="1337" on="1"/>
        <pt x="466" y="1354" on="1"/>
        <pt x="483" y="1357" on="1"/>
        <pt x="483" y="1361" on="1"/>
        <pt x="495" y="1359" on="0"/>
        <pt x="517" y="1374" on="1"/>
        <pt x="560" y="1384" on="1"/>
        <pt x="600" y="1384" on="0"/>
        <pt x="627" y="1392" on="1"/>
        <pt x="637" y="1392" on="1"/>
        <pt x="659" y="1392" on="0"/>
        <pt x="686" y="1385" on="1"/>
        <pt x="730" y="1361" on="1"/>
        <pt x="742" y="1357" on="1"/>
        <pt x="765" y="1340" on="1"/>
        <pt x="789" y="1333" on="1"/>
        <pt x="801" y="1322" on="1"/>
        <pt x="811" y="1318" on="1"/>
        <pt x="815" y="1309" on="1"/>
        <pt x="829" y="1298" on="1"/>
        <pt x="832" y="1291" on="1"/>
        <pt x="846" y="1279" on="1"/>
        <pt x="849" y="1266" on="0"/>
        <pt x="864" y="1248" on="1"/>
        <pt x="885" y="1244" on="1"/>
        <pt x="893" y="1233" on="1"/>
        <pt x="913" y="1229" on="0"/>
        <pt x="917" y="1205" on="1"/>
        <pt x="916" y="1203" on="1"/>
        <pt x="917" y="1194" on="1"/>
        <pt x="928" y="1188" on="1"/>
        <pt x="928" y="1177" on="1"/>
        <pt x="936" y="1175" on="0"/>
        <pt x="953" y="1141" on="1"/>
        <pt x="967" y="1098" on="1"/>
        <pt x="967" y="1042" on="1"/>
        <pt x="961" y="1024" on="1"/>
        <pt x="963" y="998" on="1"/>
        <pt x="967" y="994" on="1"/>
        <pt x="966" y="963" on="1"/>
        <pt x="992" y="941" on="1"/>
        <pt x="1000" y="923" on="1"/>
        <pt x="1000" y="892" on="1"/>
        <pt x="1006" y="886" on="0"/>
        <pt x="1004" y="871" on="1"/>
        <pt x="1000" y="866" on="1"/>
        <pt x="1000" y="856" on="1"/>
        <pt x="997" y="851" on="1"/>
        <pt x="997" y="840" on="1"/>
        <pt x="985" y="820" on="1"/>
        <pt x="977" y="788" on="1"/>
        <pt x="956" y="761" on="1"/>
        <pt x="936" y="739" on="0"/>
        <pt x="922" y="731" on="1"/>
        <pt x="917" y="723" on="1"/>
        <pt x="913" y="723" on="1"/>
        <pt x="893" y="708" on="1"/>
        <pt x="886" y="675" on="1"/>
        <pt x="881" y="668" on="0"/>
        <pt x="881" y="651" on="1"/>
        <pt x="895" y="654" on="0"/>
        <pt x="901" y="649" on="1"/>
        <pt x="908" y="643" on="1"/>
        <pt x="922" y="638" on="1"/>
        <pt x="947" y="614" on="1"/>
        <pt x="953" y="602" on="1"/>
        <pt x="961" y="596" on="1"/>
        <pt x="975" y="567" on="1"/>
        <pt x="982" y="565" on="1"/>
        <pt x="990" y="552" on="1"/>
        <pt x="1000" y="545" on="1"/>
        <pt x="1013" y="526" on="1"/>
        <pt x="1041" y="499" on="1"/>
        <pt x="1047" y="488" on="1"/>
        <pt x="1058" y="479" on="1"/>
        <pt x="1072" y="461" on="1"/>
        <pt x="1107" y="430" on="1"/>
        <pt x="1121" y="389" on="1"/>
        <pt x="1123" y="359" on="1"/>
        <pt x="1130" y="349" on="1"/>
        <pt x="1133" y="326" on="0"/>
        <pt x="1136" y="325" on="1"/>
        <pt x="1135" y="275" on="1"/>
        <pt x="970" y="275" on="1"/>
        <pt x="124" y="277" on="1"/>
        <pt x="147" y="328" on="1"/>
        <pt x="168" y="351" on="1"/>
        <pt x="174" y="360" on="1"/>
        <pt x="208" y="387" on="1"/>
        <pt x="223" y="408" on="1"/>
        <pt x="252" y="425" on="0"/>
        <pt x="249" y="430" on="1"/>
        <pt x="283" y="445" on="1"/>
        <pt x="290" y="460" on="1"/>
        <pt x="320" y="471" on="1"/>
        <pt x="324" y="478" on="1"/>
        <pt x="337" y="482" on="1"/>
        <pt x="341" y="489" on="1"/>
        <pt x="381" y="514" on="1"/>
        <pt x="386" y="514" on="1"/>
        <pt x="386" y="530" on="1"/>
        <pt x="380" y="531" on="0"/>
        <pt x="380" y="556" on="1"/>
        <pt x="369" y="561" on="0"/>
        <pt x="368" y="575" on="1"/>
        <pt x="369" y="580" on="0"/>
        <pt x="360" y="590" on="1"/>
        <pt x="360" y="602" on="1"/>
        <pt x="355" y="603" on="1"/>
        <pt x="357" y="607" on="0"/>
        <pt x="341" y="628" on="1"/>
        <pt x="337" y="643" on="1"/>
        <pt x="328" y="651" on="1"/>
        <pt x="303" y="696" on="1"/>
        <pt x="303" y="706" on="1"/>
        <pt x="294" y="712" on="1"/>
        <pt x="283" y="759" on="1"/>
        <pt x="283" y="794" on="1"/>
        <pt x="287" y="803" on="1"/>
        <pt x="290" y="825" on="0"/>
        <pt x="287" y="840" on="1"/>
        <pt x="290" y="848" on="1"/>
        <pt x="292" y="883" on="1"/>
        <pt x="285" y="892" on="0"/>
        <pt x="290" y="911" on="1"/>
        <pt x="285" y="936" on="1"/>
        <pt x="268" y="955" on="1"/>
        <pt x="266" y="978" on="1"/>
        <pt x="280" y="1001" on="0"/>
        <pt x="279" y="1006" on="1"/>
        <pt x="283" y="1008" on="1"/>
        <pt x="287" y="1016" on="0"/>
        <pt x="283" y="1040" on="1"/>
        <pt x="287" y="1048" on="1"/>
        <pt x="285" y="1065" on="0"/>
        <pt x="290" y="1075" on="1"/>
        <pt x="287" y="1113" on="0"/>
        <pt x="302" y="1132" on="1"/>
        <pt x="307" y="1139" on="1"/>
        <pt x="314" y="1158" on="1"/>
        <pt x="316" y="1181" on="1"/>
        <pt x="341" y="1218" on="1"/>
        <pt x="347" y="1221" on="1"/>
        <pt x="360" y="1261" on="1"/>
        <pt x="369" y="1279" on="1"/>
        <pt x="400" y="1303" on="0"/>
      </contour>
      <contour>
        <pt x="691" y="963" on="1"/>
        <pt x="715" y="951" on="1"/>
        <pt x="730" y="936" on="1"/>
        <pt x="727" y="924" on="1"/>
        <pt x="734" y="923" on="1"/>
        <pt x="742" y="909" on="1"/>
        <pt x="742" y="898" on="1"/>
        <pt x="730" y="900" on="1"/>
        <pt x="724" y="918" on="1"/>
        <pt x="700" y="938" on="1"/>
        <pt x="693" y="936" on="0"/>
        <pt x="682" y="951" on="1"/>
        <pt x="682" y="963" on="0"/>
      </contour>
      <contour>
        <pt x="577" y="933" on="1"/>
        <pt x="617" y="930" on="1"/>
        <pt x="637" y="923" on="1"/>
        <pt x="639" y="914" on="0"/>
        <pt x="633" y="914" on="1"/>
        <pt x="604" y="918" on="1"/>
        <pt x="594" y="916" on="1"/>
        <pt x="557" y="923" on="1"/>
        <pt x="538" y="914" on="1"/>
        <pt x="529" y="916" on="0"/>
        <pt x="526" y="911" on="1"/>
        <pt x="534" y="907" on="0"/>
        <pt x="526" y="896" on="1"/>
        <pt x="510" y="894" on="1"/>
        <pt x="503" y="896" on="1"/>
        <pt x="501" y="905" on="0"/>
        <pt x="507" y="905" on="1"/>
        <pt x="516" y="905" on="1"/>
        <pt x="519" y="909" on="1"/>
        <pt x="516" y="916" on="0"/>
        <pt x="519" y="918" on="1"/>
        <pt x="529" y="918" on="1"/>
        <pt x="532" y="930" on="0"/>
      </contour>
      <contour>
        <pt x="429" y="1168" on="1"/>
        <pt x="429" y="1166" on="1"/>
        <pt x="440" y="1168" on="1"/>
        <pt x="454" y="1162" on="1"/>
        <pt x="476" y="1162" on="0"/>
        <pt x="495" y="1172" on="1"/>
        <pt x="517" y="1168" on="0"/>
        <pt x="534" y="1173" on="1"/>
        <pt x="534" y="1175" on="1"/>
        <pt x="462" y="1169" on="0"/>
        <pt x="445" y="1179" on="1"/>
        <pt x="448" y="1188" on="1"/>
        <pt x="464" y="1192" on="1"/>
        <pt x="501" y="1188" on="0"/>
        <pt x="505" y="1192" on="1"/>
        <pt x="517" y="1188" on="1"/>
        <pt x="512" y="1194" on="1"/>
        <pt x="510" y="1202" on="0"/>
        <pt x="516" y="1202" on="1"/>
        <pt x="555" y="1198" on="1"/>
        <pt x="560" y="1194" on="1"/>
        <pt x="581" y="1188" on="1"/>
        <pt x="579" y="1194" on="1"/>
        <pt x="553" y="1218" on="1"/>
        <pt x="512" y="1222" on="0"/>
        <pt x="510" y="1230" on="1"/>
        <pt x="491" y="1233" on="0"/>
        <pt x="480" y="1226" on="1"/>
        <pt x="470" y="1233" on="1"/>
        <pt x="466" y="1222" on="1"/>
        <pt x="458" y="1221" on="1"/>
        <pt x="458" y="1215" on="1"/>
        <pt x="486" y="1221" on="1"/>
        <pt x="501" y="1218" on="1"/>
        <pt x="497" y="1203" on="0"/>
        <pt x="501" y="1200" on="1"/>
        <pt x="495" y="1196" on="1"/>
        <pt x="475" y="1200" on="0"/>
        <pt x="445" y="1196" on="1"/>
        <pt x="438" y="1187" on="1"/>
        <pt x="440" y="1169" on="0"/>
      </contour>
      <contour>
        <pt x="611" y="1221" on="1"/>
        <pt x="619" y="1221" on="1"/>
        <pt x="611" y="1241" on="0"/>
        <pt x="543" y="1249" on="1"/>
        <pt x="512" y="1248" on="1"/>
        <pt x="514" y="1244" on="1"/>
        <pt x="577" y="1241" on="0"/>
      </contour>
      <contour>
        <pt x="550" y="1264" on="1"/>
        <pt x="563" y="1268" on="0"/>
        <pt x="591" y="1263" on="1"/>
        <pt x="619" y="1251" on="1"/>
        <pt x="635" y="1249" on="1"/>
        <pt x="635" y="1253" on="1"/>
        <pt x="571" y="1274" on="1"/>
        <pt x="565" y="1279" on="0"/>
        <pt x="567" y="1285" on="1"/>
        <pt x="574" y="1288" on="1"/>
        <pt x="597" y="1285" on="0"/>
        <pt x="629" y="1274" on="1"/>
        <pt x="677" y="1253" on="1"/>
        <pt x="691" y="1244" on="1"/>
        <pt x="696" y="1244" on="1"/>
        <pt x="693" y="1249" on="1"/>
        <pt x="664" y="1263" on="0"/>
        <pt x="668" y="1268" on="1"/>
        <pt x="684" y="1266" on="1"/>
        <pt x="684" y="1272" on="0"/>
        <pt x="643" y="1289" on="1"/>
        <pt x="637" y="1289" on="1"/>
        <pt x="642" y="1283" on="1"/>
        <pt x="662" y="1274" on="1"/>
        <pt x="662" y="1266" on="1"/>
        <pt x="646" y="1263" on="0"/>
        <pt x="614" y="1289" on="1"/>
        <pt x="591" y="1294" on="0"/>
        <pt x="567" y="1294" on="1"/>
        <pt x="560" y="1283" on="0"/>
        <pt x="538" y="1288" on="1"/>
        <pt x="560" y="1281" on="1"/>
        <pt x="560" y="1272" on="1"/>
        <pt x="555" y="1270" on="1"/>
        <pt x="538" y="1274" on="1"/>
        <pt x="505" y="1276" on="1"/>
      </contour>
      <contour>
        <pt x="633" y="1303" on="1"/>
        <pt x="639" y="1303" on="1"/>
        <pt x="635" y="1309" on="1"/>
        <pt x="621" y="1309" on="1"/>
        <pt x="608" y="1327" on="1"/>
        <pt x="600" y="1313" on="1"/>
        <pt x="600" y="1309" on="1"/>
        <pt x="621" y="1312" on="0"/>
      </contour>
      <contour>
        <pt x="629" y="1334" on="1"/>
        <pt x="635" y="1334" on="1"/>
        <pt x="639" y="1346" on="1"/>
        <pt x="674" y="1334" on="1"/>
        <pt x="674" y="1331" on="1"/>
        <pt x="682" y="1331" on="1"/>
        <pt x="682" y="1334" on="1"/>
        <pt x="646" y="1348" on="1"/>
        <pt x="600" y="1348" on="1"/>
        <pt x="600" y="1342" on="1"/>
      </contour>
      <contour>
        <pt x="712" y="1303" on="1"/>
        <pt x="722" y="1303" on="1"/>
        <pt x="719" y="1309" on="0"/>
        <pt x="691" y="1318" on="1"/>
        <pt x="693" y="1324" on="1"/>
        <pt x="691" y="1328" on="1"/>
        <pt x="684" y="1328" on="1"/>
        <pt x="684" y="1324" on="1"/>
        <pt x="653" y="1328" on="1"/>
        <pt x="651" y="1324" on="1"/>
        <pt x="655" y="1322" on="1"/>
        <pt x="668" y="1324" on="1"/>
        <pt x="696" y="1313" on="1"/>
      </contour>
      <contour>
        <pt x="452" y="847" on="1"/>
        <pt x="467" y="839" on="1"/>
        <pt x="453" y="821" on="0"/>
        <pt x="448" y="792" on="1"/>
        <pt x="440" y="797" on="1"/>
      </contour>
      <contour>
        <pt x="781" y="1046" on="1"/>
        <pt x="785" y="1048" on="1"/>
        <pt x="785" y="1075" on="0"/>
        <pt x="777" y="1090" on="1"/>
        <pt x="775" y="1090" on="1"/>
      </contour>
      <contour>
        <pt x="100" y="251" on="1"/>
        <pt x="167" y="251" on="1"/>
        <pt x="167" y="239" on="1"/>
        <pt x="123" y="239" on="1"/>
        <pt x="123" y="219" on="1"/>
        <pt x="142" y="219" on="1"/>
        <pt x="142" y="208" on="1"/>
        <pt x="123" y="207" on="1"/>
        <pt x="123" y="174" on="1"/>
        <pt x="100" y="174" on="1"/>
      </contour>
      <contour>
        <pt x="385" y="241" on="1"/>
        <pt x="406" y="241" on="1"/>
        <pt x="406" y="229" on="1"/>
        <pt x="429" y="229" on="1"/>
        <pt x="428" y="219" on="1"/>
        <pt x="406" y="219" on="1"/>
        <pt x="406" y="185" on="1"/>
        <pt x="428" y="185" on="1"/>
        <pt x="428" y="174" on="1"/>
        <pt x="395" y="174" on="1"/>
        <pt x="395" y="185" on="1"/>
        <pt x="385" y="185" on="1"/>
        <pt x="385" y="219" on="1"/>
        <pt x="363" y="219" on="1"/>
        <pt x="363" y="229" on="1"/>
        <pt x="385" y="229" on="1"/>
      </contour>
      <contour>
        <pt x="888" y="241" on="1"/>
        <pt x="909" y="241" on="1"/>
        <pt x="909" y="229" on="1"/>
        <pt x="932" y="229" on="1"/>
        <pt x="932" y="219" on="1"/>
        <pt x="909" y="219" on="1"/>
        <pt x="909" y="185" on="1"/>
        <pt x="932" y="185" on="1"/>
        <pt x="932" y="174" on="1"/>
        <pt x="898" y="174" on="1"/>
        <pt x="898" y="185" on="1"/>
        <pt x="888" y="185" on="1"/>
        <pt x="888" y="219" on="1"/>
        <pt x="865" y="219" on="1"/>
        <pt x="865" y="229" on="1"/>
        <pt x="888" y="229" on="1"/>
      </contour>
      <contour>
        <pt x="1084" y="241" on="1"/>
        <pt x="1106" y="241" on="1"/>
        <pt x="1106" y="174" on="1"/>
        <pt x="1050" y="174" on="1"/>
        <pt x="1050" y="185" on="1"/>
        <pt x="1040" y="185" on="1"/>
        <pt x="1040" y="207" on="1"/>
        <pt x="1050" y="207" on="1"/>
        <pt x="1050" y="219" on="1"/>
        <pt x="1084" y="219" on="1"/>
      </contour>
      <contour>
        <pt x="198" y="229" on="1"/>
        <pt x="244" y="229" on="1"/>
        <pt x="244" y="219" on="1"/>
        <pt x="254" y="219" on="1"/>
        <pt x="254" y="185" on="1"/>
        <pt x="244" y="185" on="1"/>
        <pt x="244" y="174" on="1"/>
        <pt x="198" y="174" on="1"/>
        <pt x="198" y="185" on="1"/>
        <pt x="188" y="185" on="1"/>
        <pt x="188" y="219" on="1"/>
        <pt x="198" y="219" on="1"/>
      </contour>
      <contour>
        <pt x="275" y="229" on="1"/>
        <pt x="331" y="229" on="1"/>
        <pt x="331" y="219" on="1"/>
        <pt x="341" y="219" on="1"/>
        <pt x="341" y="174" on="1"/>
        <pt x="319" y="174" on="1"/>
        <pt x="319" y="219" on="1"/>
        <pt x="298" y="218" on="1"/>
        <pt x="298" y="174" on="1"/>
        <pt x="275" y="174" on="1"/>
      </contour>
      <contour>
        <pt x="527" y="229" on="1"/>
        <pt x="572" y="229" on="1"/>
        <pt x="572" y="219" on="1"/>
        <pt x="539" y="219" on="1"/>
        <pt x="539" y="185" on="1"/>
        <pt x="572" y="185" on="1"/>
        <pt x="572" y="174" on="1"/>
        <pt x="527" y="174" on="1"/>
        <pt x="527" y="185" on="1"/>
        <pt x="516" y="185" on="1"/>
        <pt x="516" y="219" on="1"/>
        <pt x="527" y="219" on="1"/>
      </contour>
      <contour>
        <pt x="604" y="229" on="1"/>
        <pt x="659" y="229" on="1"/>
        <pt x="659" y="219" on="1"/>
        <pt x="669" y="219" on="1"/>
        <pt x="669" y="207" on="1"/>
        <pt x="647" y="207" on="1"/>
        <pt x="647" y="219" on="1"/>
        <pt x="626" y="219" on="1"/>
        <pt x="626" y="174" on="1"/>
        <pt x="604" y="174" on="1"/>
      </contour>
      <contour>
        <pt x="701" y="229" on="1"/>
        <pt x="746" y="229" on="1"/>
        <pt x="746" y="219" on="1"/>
        <pt x="757" y="219" on="1"/>
        <pt x="757" y="195" on="1"/>
        <pt x="713" y="195" on="1"/>
        <pt x="713" y="185" on="1"/>
        <pt x="746" y="185" on="1"/>
        <pt x="746" y="174" on="1"/>
        <pt x="703" y="174" on="1"/>
        <pt x="703" y="185" on="1"/>
        <pt x="691" y="185" on="1"/>
        <pt x="691" y="219" on="1"/>
        <pt x="701" y="219" on="1"/>
      </contour>
      <contour>
        <pt x="788" y="229" on="1"/>
        <pt x="833" y="229" on="1"/>
        <pt x="833" y="219" on="1"/>
        <pt x="844" y="219" on="1"/>
        <pt x="844" y="174" on="1"/>
        <pt x="788" y="174" on="1"/>
        <pt x="788" y="185" on="1"/>
        <pt x="778" y="185" on="1"/>
        <pt x="778" y="197" on="1"/>
        <pt x="788" y="197" on="1"/>
        <pt x="788" y="207" on="1"/>
        <pt x="821" y="207" on="1"/>
        <pt x="821" y="219" on="1"/>
        <pt x="788" y="219" on="1"/>
      </contour>
      <contour>
        <pt x="963" y="229" on="1"/>
        <pt x="1008" y="229" on="1"/>
        <pt x="1008" y="219" on="1"/>
        <pt x="1019" y="219" on="1"/>
        <pt x="1019" y="195" on="1"/>
        <pt x="976" y="195" on="1"/>
        <pt x="975" y="185" on="1"/>
        <pt x="1008" y="185" on="1"/>
        <pt x="1008" y="174" on="1"/>
        <pt x="965" y="174" on="1"/>
        <pt x="965" y="185" on="1"/>
        <pt x="953" y="185" on="1"/>
        <pt x="953" y="219" on="1"/>
        <pt x="963" y="219" on="1"/>
      </contour>
      <contour>
        <pt x="211" y="219" on="1"/>
        <pt x="211" y="185" on="1"/>
        <pt x="231" y="185" on="1"/>
        <pt x="231" y="219" on="1"/>
      </contour>
      <contour>
        <pt x="713" y="219" on="1"/>
        <pt x="713" y="207" on="1"/>
        <pt x="734" y="207" on="1"/>
        <pt x="734" y="219" on="1"/>
      </contour>
      <contour>
        <pt x="975" y="219" on="1"/>
        <pt x="975" y="207" on="1"/>
        <pt x="996" y="207" on="1"/>
        <pt x="996" y="219" on="1"/>
      </contour>
      <contour>
        <pt x="1062" y="207" on="1"/>
        <pt x="1062" y="185" on="1"/>
        <pt x="1084" y="185" on="1"/>
        <pt x="1084" y="207" on="1"/>
      </contour>
      <contour>
        <pt x="801" y="195" on="1"/>
        <pt x="801" y="185" on="1"/>
        <pt x="821" y="185" on="1"/>
        <pt x="821" y="195" on="1"/>
      </contour>
      <contour>
        <pt x="341" y="164" on="1"/>
        <pt x="385" y="164" on="1"/>
        <pt x="385" y="154" on="1"/>
        <pt x="397" y="154" on="1"/>
        <pt x="397" y="142" on="1"/>
        <pt x="408" y="142" on="1"/>
        <pt x="408" y="108" on="1"/>
        <pt x="397" y="108" on="1"/>
        <pt x="397" y="98" on="1"/>
        <pt x="385" y="98" on="1"/>
        <pt x="385" y="87" on="1"/>
        <pt x="341" y="87" on="1"/>
      </contour>
      <contour>
        <pt x="626" y="164" on="1"/>
        <pt x="647" y="164" on="1"/>
        <pt x="647" y="152" on="1"/>
        <pt x="626" y="152" on="1"/>
      </contour>
      <contour>
        <pt x="855" y="164" on="1"/>
        <pt x="900" y="164" on="1"/>
        <pt x="900" y="154" on="1"/>
        <pt x="910" y="154" on="1"/>
        <pt x="910" y="142" on="1"/>
        <pt x="888" y="142" on="1"/>
        <pt x="888" y="152" on="1"/>
        <pt x="867" y="152" on="1"/>
        <pt x="867" y="98" on="1"/>
        <pt x="888" y="98" on="1"/>
        <pt x="888" y="110" on="1"/>
        <pt x="910" y="110" on="1"/>
        <pt x="910" y="98" on="1"/>
        <pt x="900" y="98" on="1"/>
        <pt x="900" y="87" on="1"/>
        <pt x="855" y="87" on="1"/>
        <pt x="855" y="98" on="1"/>
        <pt x="845" y="98" on="1"/>
        <pt x="844" y="154" on="1"/>
        <pt x="855" y="154" on="1"/>
      </contour>
      <contour>
        <pt x="1106" y="164" on="1"/>
        <pt x="1129" y="164" on="1"/>
        <pt x="1129" y="120" on="1"/>
        <pt x="1139" y="120" on="1"/>
        <pt x="1139" y="131" on="1"/>
        <pt x="1162" y="131" on="1"/>
        <pt x="1162" y="121" on="1"/>
        <pt x="1150" y="120" on="1"/>
        <pt x="1150" y="110" on="1"/>
        <pt x="1162" y="110" on="1"/>
        <pt x="1162" y="98" on="1"/>
        <pt x="1172" y="98" on="1"/>
        <pt x="1173" y="87" on="1"/>
        <pt x="1150" y="87" on="1"/>
        <pt x="1150" y="98" on="1"/>
        <pt x="1139" y="98" on="1"/>
        <pt x="1139" y="108" on="1"/>
        <pt x="1129" y="108" on="1"/>
        <pt x="1129" y="87" on="1"/>
        <pt x="1106" y="87" on="1"/>
      </contour>
      <contour>
        <pt x="100" y="154" on="1"/>
        <pt x="123" y="154" on="1"/>
        <pt x="123" y="131" on="1"/>
        <pt x="156" y="131" on="1"/>
        <pt x="156" y="120" on="1"/>
        <pt x="167" y="120" on="1"/>
        <pt x="167" y="98" on="1"/>
        <pt x="156" y="98" on="1"/>
        <pt x="156" y="87" on="1"/>
        <pt x="100" y="87" on="1"/>
      </contour>
      <contour>
        <pt x="364" y="152" on="1"/>
        <pt x="364" y="98" on="1"/>
        <pt x="375" y="98" on="1"/>
        <pt x="375" y="110" on="1"/>
        <pt x="385" y="110" on="1"/>
        <pt x="385" y="142" on="1"/>
        <pt x="375" y="142" on="1"/>
        <pt x="375" y="152" on="1"/>
      </contour>
      <contour>
        <pt x="188" y="142" on="1"/>
        <pt x="211" y="142" on="1"/>
        <pt x="211" y="110" on="1"/>
        <pt x="231" y="110" on="1"/>
        <pt x="231" y="142" on="1"/>
        <pt x="254" y="142" on="1"/>
        <pt x="254" y="99" on="1"/>
        <pt x="242" y="99" on="1"/>
        <pt x="242" y="87" on="1"/>
        <pt x="231" y="87" on="1"/>
        <pt x="231" y="77" on="1"/>
        <pt x="188" y="77" on="1"/>
        <pt x="188" y="87" on="1"/>
        <pt x="221" y="87" on="1"/>
        <pt x="221" y="98" on="1"/>
        <pt x="198" y="98" on="1"/>
        <pt x="198" y="108" on="1"/>
        <pt x="188" y="108" on="1"/>
      </contour>
      <contour>
        <pt x="440" y="142" on="1"/>
        <pt x="485" y="142" on="1"/>
        <pt x="485" y="131" on="1"/>
        <pt x="495" y="131" on="1"/>
        <pt x="495" y="108" on="1"/>
        <pt x="451" y="108" on="1"/>
        <pt x="452" y="98" on="1"/>
        <pt x="485" y="98" on="1"/>
        <pt x="485" y="87" on="1"/>
        <pt x="440" y="87" on="1"/>
        <pt x="440" y="98" on="1"/>
        <pt x="428" y="98" on="1"/>
        <pt x="428" y="131" on="1"/>
        <pt x="440" y="131" on="1"/>
      </contour>
      <contour>
        <pt x="516" y="142" on="1"/>
        <pt x="539" y="142" on="1"/>
        <pt x="539" y="110" on="1"/>
        <pt x="560" y="110" on="1"/>
        <pt x="560" y="142" on="1"/>
        <pt x="582" y="142" on="1"/>
        <pt x="582" y="108" on="1"/>
        <pt x="572" y="108" on="1"/>
        <pt x="572" y="98" on="1"/>
        <pt x="560" y="98" on="1"/>
        <pt x="560" y="87" on="1"/>
        <pt x="539" y="87" on="1"/>
        <pt x="539" y="98" on="1"/>
        <pt x="527" y="98" on="1"/>
        <pt x="527" y="108" on="1"/>
        <pt x="516" y="108" on="1"/>
      </contour>
      <contour>
        <pt x="614" y="142" on="1"/>
        <pt x="647" y="142" on="1"/>
        <pt x="647" y="98" on="1"/>
        <pt x="659" y="98" on="1"/>
        <pt x="659" y="87" on="1"/>
        <pt x="614" y="87" on="1"/>
        <pt x="614" y="98" on="1"/>
        <pt x="626" y="98" on="1"/>
        <pt x="626" y="131" on="1"/>
        <pt x="614" y="131" on="1"/>
      </contour>
      <contour>
        <pt x="691" y="142" on="1"/>
        <pt x="746" y="142" on="1"/>
        <pt x="746" y="131" on="1"/>
        <pt x="757" y="131" on="1"/>
        <pt x="757" y="87" on="1"/>
        <pt x="734" y="87" on="1"/>
        <pt x="734" y="131" on="1"/>
        <pt x="713" y="130" on="1"/>
        <pt x="713" y="87" on="1"/>
        <pt x="691" y="87" on="1"/>
      </contour>
      <contour>
        <pt x="942" y="142" on="1"/>
        <pt x="987" y="142" on="1"/>
        <pt x="987" y="131" on="1"/>
        <pt x="998" y="131" on="1"/>
        <pt x="998" y="98" on="1"/>
        <pt x="987" y="98" on="1"/>
        <pt x="987" y="87" on="1"/>
        <pt x="942" y="87" on="1"/>
        <pt x="942" y="98" on="1"/>
        <pt x="932" y="98" on="1"/>
        <pt x="932" y="131" on="1"/>
        <pt x="942" y="131" on="1"/>
      </contour>
      <contour>
        <pt x="1029" y="142" on="1"/>
        <pt x="1075" y="142" on="1"/>
        <pt x="1075" y="131" on="1"/>
        <pt x="1085" y="131" on="1"/>
        <pt x="1085" y="98" on="1"/>
        <pt x="1075" y="98" on="1"/>
        <pt x="1075" y="87" on="1"/>
        <pt x="1029" y="87" on="1"/>
        <pt x="1029" y="98" on="1"/>
        <pt x="1019" y="98" on="1"/>
        <pt x="1019" y="131" on="1"/>
        <pt x="1029" y="131" on="1"/>
      </contour>
      <contour>
        <pt x="452" y="131" on="1"/>
        <pt x="452" y="120" on="1"/>
        <pt x="472" y="120" on="1"/>
        <pt x="472" y="131" on="1"/>
      </contour>
      <contour>
        <pt x="954" y="131" on="1"/>
        <pt x="954" y="98" on="1"/>
        <pt x="975" y="98" on="1"/>
        <pt x="975" y="131" on="1"/>
      </contour>
      <contour>
        <pt x="1042" y="131" on="1"/>
        <pt x="1042" y="98" on="1"/>
        <pt x="1062" y="98" on="1"/>
        <pt x="1062" y="131" on="1"/>
      </contour>
      <contour>
        <pt x="123" y="120" on="1"/>
        <pt x="123" y="98" on="1"/>
        <pt x="144" y="98" on="1"/>
        <pt x="144" y="120" on="1"/>
      </contour>
      <contour>
        <pt x="354" y="56" on="1"/>
        <pt x="386" y="56" on="1"/>
        <pt x="386" y="48" on="1"/>
        <pt x="395" y="48" on="1"/>
        <pt x="395" y="39" on="1"/>
        <pt x="403" y="39" on="1"/>
        <pt x="403" y="15" on="1"/>
        <pt x="395" y="15" on="1"/>
        <pt x="395" y="8" on="1"/>
        <pt x="386" y="8" on="1"/>
        <pt x="386" y="0" on="1"/>
        <pt x="354" y="0" on="1"/>
      </contour>
      <contour>
        <pt x="561" y="56" on="1"/>
        <pt x="576" y="56" on="1"/>
        <pt x="576" y="47" on="1"/>
        <pt x="561" y="47" on="1"/>
      </contour>
      <contour>
        <pt x="680" y="56" on="1"/>
        <pt x="712" y="56" on="1"/>
        <pt x="712" y="48" on="1"/>
        <pt x="719" y="48" on="1"/>
        <pt x="719" y="39" on="1"/>
        <pt x="703" y="39" on="1"/>
        <pt x="703" y="47" on="1"/>
        <pt x="688" y="47" on="1"/>
        <pt x="688" y="8" on="1"/>
        <pt x="703" y="8" on="1"/>
        <pt x="703" y="17" on="1"/>
        <pt x="720" y="17" on="1"/>
        <pt x="720" y="8" on="1"/>
        <pt x="712" y="8" on="1"/>
        <pt x="712" y="0" on="1"/>
        <pt x="680" y="0" on="1"/>
        <pt x="680" y="8" on="1"/>
        <pt x="672" y="8" on="1"/>
        <pt x="672" y="48" on="1"/>
        <pt x="680" y="48" on="1"/>
      </contour>
      <contour>
        <pt x="863" y="56" on="1"/>
        <pt x="878" y="56" on="1"/>
        <pt x="878" y="24" on="1"/>
        <pt x="886" y="24" on="1"/>
        <pt x="886" y="32" on="1"/>
        <pt x="903" y="32" on="1"/>
        <pt x="903" y="24" on="1"/>
        <pt x="893" y="24" on="1"/>
        <pt x="893" y="17" on="1"/>
        <pt x="903" y="17" on="1"/>
        <pt x="903" y="8" on="1"/>
        <pt x="910" y="8" on="1"/>
        <pt x="910" y="0" on="1"/>
        <pt x="893" y="0" on="1"/>
        <pt x="893" y="8" on="1"/>
        <pt x="886" y="8" on="1"/>
        <pt x="886" y="15" on="1"/>
        <pt x="878" y="15" on="1"/>
        <pt x="878" y="0" on="1"/>
        <pt x="863" y="0" on="1"/>
      </contour>
      <contour>
        <pt x="371" y="47" on="1"/>
        <pt x="371" y="8" on="1"/>
        <pt x="379" y="8" on="1"/>
        <pt x="379" y="17" on="1"/>
        <pt x="386" y="17" on="1"/>
        <pt x="386" y="39" on="1"/>
        <pt x="379" y="39" on="1"/>
        <pt x="379" y="47" on="1"/>
      </contour>
      <contour>
        <pt x="100" y="39" on="1"/>
        <pt x="117" y="39" on="1"/>
        <pt x="117" y="24" on="1"/>
        <pt x="124" y="24" on="1"/>
        <pt x="124" y="32" on="1"/>
        <pt x="132" y="32" on="1"/>
        <pt x="132" y="24" on="1"/>
        <pt x="139" y="24" on="1"/>
        <pt x="139" y="39" on="1"/>
        <pt x="156" y="39" on="1"/>
        <pt x="156" y="15" on="1"/>
        <pt x="149" y="15" on="1"/>
        <pt x="149" y="0" on="1"/>
        <pt x="132" y="0" on="1"/>
        <pt x="132" y="8" on="1"/>
        <pt x="124" y="8" on="1"/>
        <pt x="124" y="0" on="1"/>
        <pt x="108" y="0" on="1"/>
        <pt x="108" y="15" on="1"/>
        <pt x="100" y="15" on="1"/>
      </contour>
      <contour>
        <pt x="164" y="39" on="1"/>
        <pt x="181" y="39" on="1"/>
        <pt x="181" y="24" on="1"/>
        <pt x="188" y="24" on="1"/>
        <pt x="188" y="32" on="1"/>
        <pt x="196" y="32" on="1"/>
        <pt x="196" y="24" on="1"/>
        <pt x="203" y="24" on="1"/>
        <pt x="203" y="39" on="1"/>
        <pt x="220" y="39" on="1"/>
        <pt x="220" y="15" on="1"/>
        <pt x="213" y="15" on="1"/>
        <pt x="213" y="0" on="1"/>
        <pt x="196" y="0" on="1"/>
        <pt x="196" y="8" on="1"/>
        <pt x="188" y="8" on="1"/>
        <pt x="188" y="0" on="1"/>
        <pt x="171" y="0" on="1"/>
        <pt x="171" y="15" on="1"/>
        <pt x="164" y="15" on="1"/>
      </contour>
      <contour>
        <pt x="228" y="39" on="1"/>
        <pt x="244" y="39" on="1"/>
        <pt x="244" y="24" on="1"/>
        <pt x="252" y="24" on="1"/>
        <pt x="252" y="32" on="1"/>
        <pt x="259" y="32" on="1"/>
        <pt x="259" y="24" on="1"/>
        <pt x="267" y="24" on="1"/>
        <pt x="267" y="39" on="1"/>
        <pt x="283" y="39" on="1"/>
        <pt x="283" y="15" on="1"/>
        <pt x="275" y="15" on="1"/>
        <pt x="275" y="0" on="1"/>
        <pt x="259" y="0" on="1"/>
        <pt x="259" y="8" on="1"/>
        <pt x="252" y="8" on="1"/>
        <pt x="252" y="0" on="1"/>
        <pt x="235" y="0" on="1"/>
        <pt x="235" y="15" on="1"/>
        <pt x="228" y="15" on="1"/>
      </contour>
      <contour>
        <pt x="425" y="39" on="1"/>
        <pt x="458" y="39" on="1"/>
        <pt x="458" y="32" on="1"/>
        <pt x="466" y="32" on="1"/>
        <pt x="466" y="15" on="1"/>
        <pt x="434" y="15" on="1"/>
        <pt x="434" y="8" on="1"/>
        <pt x="458" y="8" on="1"/>
        <pt x="458" y="0" on="1"/>
        <pt x="426" y="0" on="1"/>
        <pt x="426" y="8" on="1"/>
        <pt x="418" y="8" on="1"/>
        <pt x="418" y="32" on="1"/>
        <pt x="425" y="32" on="1"/>
      </contour>
      <contour>
        <pt x="482" y="39" on="1"/>
        <pt x="498" y="39" on="1"/>
        <pt x="498" y="17" on="1"/>
        <pt x="513" y="17" on="1"/>
        <pt x="513" y="39" on="1"/>
        <pt x="530" y="39" on="1"/>
        <pt x="530" y="15" on="1"/>
        <pt x="522" y="15" on="1"/>
        <pt x="522" y="8" on="1"/>
        <pt x="513" y="8" on="1"/>
        <pt x="513" y="0" on="1"/>
        <pt x="498" y="0" on="1"/>
        <pt x="498" y="8" on="1"/>
        <pt x="489" y="8" on="1"/>
        <pt x="489" y="15" on="1"/>
        <pt x="482" y="15" on="1"/>
      </contour>
      <contour>
        <pt x="552" y="39" on="1"/>
        <pt x="576" y="39" on="1"/>
        <pt x="576" y="8" on="1"/>
        <pt x="586" y="8" on="1"/>
        <pt x="586" y="0" on="1"/>
        <pt x="552" y="0" on="1"/>
        <pt x="552" y="8" on="1"/>
        <pt x="561" y="8" on="1"/>
        <pt x="561" y="32" on="1"/>
        <pt x="552" y="32" on="1"/>
      </contour>
      <contour>
        <pt x="608" y="39" on="1"/>
        <pt x="649" y="39" on="1"/>
        <pt x="649" y="32" on="1"/>
        <pt x="656" y="32" on="1"/>
        <pt x="657" y="0" on="1"/>
        <pt x="640" y="0" on="1"/>
        <pt x="640" y="32" on="1"/>
        <pt x="625" y="32" on="1"/>
        <pt x="625" y="0" on="1"/>
        <pt x="608" y="0" on="1"/>
      </contour>
      <contour>
        <pt x="742" y="39" on="1"/>
        <pt x="776" y="39" on="1"/>
        <pt x="776" y="32" on="1"/>
        <pt x="784" y="32" on="1"/>
        <pt x="784" y="8" on="1"/>
        <pt x="776" y="8" on="1"/>
        <pt x="776" y="0" on="1"/>
        <pt x="742" y="0" on="1"/>
        <pt x="742" y="8" on="1"/>
        <pt x="735" y="8" on="1"/>
        <pt x="735" y="32" on="1"/>
        <pt x="742" y="32" on="1"/>
      </contour>
      <contour>
        <pt x="806" y="39" on="1"/>
        <pt x="839" y="39" on="1"/>
        <pt x="839" y="32" on="1"/>
        <pt x="847" y="32" on="1"/>
        <pt x="847" y="8" on="1"/>
        <pt x="839" y="8" on="1"/>
        <pt x="839" y="0" on="1"/>
        <pt x="806" y="0" on="1"/>
        <pt x="806" y="8" on="1"/>
        <pt x="799" y="8" on="1"/>
        <pt x="799" y="32" on="1"/>
        <pt x="806" y="32" on="1"/>
      </contour>
      <contour>
        <pt x="997" y="39" on="1"/>
        <pt x="1029" y="39" on="1"/>
        <pt x="1029" y="32" on="1"/>
        <pt x="1006" y="32" on="1"/>
        <pt x="1006" y="8" on="1"/>
        <pt x="1029" y="8" on="1"/>
        <pt x="1029" y="0" on="1"/>
        <pt x="997" y="0" on="1"/>
        <pt x="997" y="8" on="1"/>
        <pt x="989" y="8" on="1"/>
        <pt x="989" y="32" on="1"/>
        <pt x="997" y="32" on="1"/>
      </contour>
      <contour>
        <pt x="1060" y="39" on="1"/>
        <pt x="1093" y="39" on="1"/>
        <pt x="1093" y="32" on="1"/>
        <pt x="1101" y="32" on="1"/>
        <pt x="1101" y="8" on="1"/>
        <pt x="1093" y="8" on="1"/>
        <pt x="1093" y="0" on="1"/>
        <pt x="1060" y="0" on="1"/>
        <pt x="1060" y="8" on="1"/>
        <pt x="1053" y="8" on="1"/>
        <pt x="1053" y="32" on="1"/>
        <pt x="1060" y="32" on="1"/>
      </contour>
      <contour>
        <pt x="1116" y="39" on="1"/>
        <pt x="1133" y="39" on="1"/>
        <pt x="1133" y="32" on="1"/>
        <pt x="1148" y="32" on="1"/>
        <pt x="1148" y="39" on="1"/>
        <pt x="1163" y="39" on="1"/>
        <pt x="1163" y="32" on="1"/>
        <pt x="1171" y="32" on="1"/>
        <pt x="1171" y="0" on="1"/>
        <pt x="1155" y="0" on="1"/>
        <pt x="1155" y="15" on="1"/>
        <pt x="1148" y="15" on="1"/>
        <pt x="1148" y="8" on="1"/>
        <pt x="1140" y="8" on="1"/>
        <pt x="1140" y="15" on="1"/>
        <pt x="1133" y="15" on="1"/>
        <pt x="1133" y="0" on="1"/>
        <pt x="1116" y="0" on="1"/>
      </contour>
      <contour>
        <pt x="434" y="32" on="1"/>
        <pt x="434" y="24" on="1"/>
        <pt x="450" y="24" on="1"/>
        <pt x="450" y="32" on="1"/>
      </contour>
      <contour>
        <pt x="752" y="32" on="1"/>
        <pt x="752" y="8" on="1"/>
        <pt x="767" y="8" on="1"/>
        <pt x="767" y="32" on="1"/>
      </contour>
      <contour>
        <pt x="816" y="32" on="1"/>
        <pt x="816" y="8" on="1"/>
        <pt x="831" y="8" on="1"/>
        <pt x="831" y="32" on="1"/>
      </contour>
      <contour>
        <pt x="1069" y="32" on="1"/>
        <pt x="1069" y="8" on="1"/>
        <pt x="1085" y="8" on="1"/>
        <pt x="1085" y="32" on="1"/>
      </contour>
      <contour>
        <pt x="307" y="17" on="1"/>
        <pt x="322" y="17" on="1"/>
        <pt x="322" y="0" on="1"/>
        <pt x="307" y="0" on="1"/>
      </contour>
      <contour>
        <pt x="942" y="17" on="1"/>
        <pt x="957" y="17" on="1"/>
        <pt x="957" y="0" on="1"/>
        <pt x="942" y="0" on="1"/>
      </contour>
    </TTGlyph>
    <TTGlyph name="glyph00132" xMin="200" yMin="0" xMax="1400" yMax="1400">
      <contour>
        <pt x="200" y="1400" on="1"/>
        <pt x="900" y="1400" on="1"/>
        <pt x="1100" y="1400" on="0"/>
        <pt x="1300" y="1200" on="0"/>
        <pt x="1300" y="1000" on="1"/>
        <pt x="1300" y="800" on="1"/>
        <pt x="1400" y="800" on="1"/>
        <pt x="1400" y="600" on="1"/>
        <pt x="1300" y="600" on="1"/>
        <pt x="1300" y="400" on="1"/>
        <pt x="1300" y="200" on="0"/>
        <pt x="1100" y="0" on="0"/>
        <pt x="900" y="0" on="1"/>
        <pt x="200" y="0" on="1"/>
      </contour>
      <contour>
        <pt x="600" y="1200" on="1"/>
        <pt x="600" y="200" on="1"/>
        <pt x="700" y="200" on="1"/>
        <pt x="900" y="200" on="0"/>
        <pt x="900" y="400" on="1"/>
        <pt x="900" y="600" on="1"/>
        <pt x="700" y="600" on="1"/>
        <pt x="700" y="800" on="1"/>
        <pt x="900" y="800" on="1"/>
        <pt x="900" y="1000" on="1"/>
        <pt x="900" y="1200" on="0"/>
        <pt x="700" y="1200" on="1"/>
      </contour>
    </TTGlyph>
    <TTGlyph name="glyph00168" xMin="200" yMin="0" xMax="1400" yMax="1400">
      <contour>
        <pt x="600" y="1400" on="1"/>
        <pt x="1000" y="1400" on="1"/>
        <pt x="1000" y="1000" on="1"/>
        <pt x="600" y="1000" on="1"/>
      </contour>
      <contour>
        <pt x="600" y="400" on="1"/>
        <pt x="1000" y="400" on="1"/>
        <pt x="1000" y="0" on="1"/>
        <pt x="600" y="4" on="1"/>
      </contour>
      <contour>
        <pt x="200" y="600" on="1"/>
        <pt x="200" y="800" on="1"/>
        <pt x="1400" y="800" on="1"/>
        <pt x="1400" y="600" on="1"/>
      </contour>
    </TTGlyph>
    <TTGlyph name="glyph00197" xMin="200" yMin="0" xMax="1400" yMax="1800">
      <contour>
        <pt x="1100" y="1800" on="1"/>
        <pt x="900" y="1600" on="1"/>
        <pt x="700" y="1600" on="1"/>
        <pt x="500" y="1800" on="1"/>
        <pt x="700" y="1800" on="1"/>
        <pt x="800" y="1700" on="1"/>
        <pt x="900" y="1800" on="1"/>
      </contour>
      <contour>
        <pt x="200" y="400" on="1"/>
        <pt x="600" y="400" on="1"/>
        <pt x="600" y="200" on="1"/>
        <pt x="1000" y="200" on="1"/>
        <pt x="1000" y="600" on="1"/>
        <pt x="400" y="600" on="1"/>
        <pt x="200" y="600" on="0"/>
        <pt x="200" y="800" on="1"/>
        <pt x="200" y="1200" on="1"/>
        <pt x="200" y="1400" on="0"/>
        <pt x="400" y="1400" on="1"/>
        <pt x="1200" y="1400" on="1"/>
        <pt x="1400" y="1400" on="0"/>
        <pt x="1400" y="1200" on="1"/>
        <pt x="1400" y="1000" on="1"/>
        <pt x="1000" y="1000" on="1"/>
        <pt x="1000" y="1200" on="1"/>
        <pt x="600" y="1200" on="1"/>
        <pt x="600" y="800" on="1"/>
        <pt x="1200" y="800" on="1"/>
        <pt x="1400" y="800" on="0"/>
        <pt x="1400" y="600" on="1"/>
        <pt x="1400" y="200" on="1"/>
        <pt x="1400" y="0" on="0"/>
        <pt x="1200" y="0" on="1"/>
        <pt x="400" y="0" on="1"/>
        <pt x="200" y="0" on="0"/>
        <pt x="200" y="200" on="1"/>
      </contour>
    </TTGlyph>
    <TTGlyph name="glyph00201" xMin="200" yMin="0" xMax="1400" yMax="1400">
      <contour>
        <pt x="200" y="200" on="1"/>
        <pt x="1000" y="200" on="1"/>
        <pt x="1000" y="400" on="1"/>
        <pt x="400" y="400" on="1"/>
        <pt x="200" y="400" on="0"/>
        <pt x="200" y="600" on="1"/>
        <pt x="200" y="800" on="1"/>
        <pt x="200" y="1000" on="0"/>
        <pt x="400" y="1000" on="1"/>
        <pt x="1400" y="1000" on="1"/>
        <pt x="1400" y="800" on="1"/>
        <pt x="600" y="800" on="1"/>
        <pt x="600" y="600" on="1"/>
        <pt x="1200" y="600" on="1"/>
        <pt x="1400" y="600" on="0"/>
        <pt x="1400" y="400" on="1"/>
        <pt x="1400" y="200" on="1"/>
        <pt x="1400" y="0" on="0"/>
        <pt x="1200" y="0" on="1"/>
        <pt x="200" y="0" on="1"/>
      </contour>
      <contour>
        <pt x="1100" y="1400" on="1"/>
        <pt x="900" y="1200" on="1"/>
        <pt x="700" y="1200" on="1"/>
        <pt x="500" y="1400" on="1"/>
        <pt x="700" y="1400" on="1"/>
        <pt x="800" y="1300" on="1"/>
        <pt x="900" y="1400" on="1"/>
      </contour>
    </TTGlyph>
    <TTGlyph name="grave" xMin="600" yMin="800" xMax="1400" yMax="1400">
      <contour>
        <pt x="1000" y="1400" on="1"/>
        <pt x="1200" y="1200" on="1"/>
        <pt x="1400" y="1000" on="1"/>
        <pt x="1400" y="800" on="1"/>
        <pt x="1000" y="800" on="1"/>
        <pt x="800" y="1000" on="1"/>
        <pt x="600" y="1200" on="1"/>
        <pt x="600" y="1400" on="1"/>
      </contour>
    </TTGlyph>
    <TTGlyph name="greater" xMin="200" yMin="0" xMax="1400" yMax="1400">
      <contour>
        <pt x="700" y="1400" on="1"/>
        <pt x="1400" y="700" on="1"/>
        <pt x="700" y="0" on="1"/>
        <pt x="200" y="0" on="1"/>
        <pt x="200" y="200" on="1"/>
        <pt x="500" y="200" on="1"/>
        <pt x="1000" y="700" on="1"/>
        <pt x="500" y="1200" on="1"/>
        <pt x="200" y="1200" on="1"/>
        <pt x="200" y="1400" on="1"/>
      </contour>
    </TTGlyph>
    <TTGlyph name="guillemotleft" xMin="200" yMin="0" xMax="1400" yMax="1400">
      <contour>
        <pt x="1400" y="1000" on="1"/>
        <pt x="1100" y="700" on="1"/>
        <pt x="1400" y="400" on="1"/>
        <pt x="1400" y="0" on="1"/>
        <pt x="800" y="600" on="1"/>
        <pt x="800" y="800" on="1"/>
        <pt x="1400" y="1400" on="1"/>
      </contour>
      <contour>
        <pt x="800" y="1000" on="1"/>
        <pt x="500" y="700" on="1"/>
        <pt x="800" y="400" on="1"/>
        <pt x="800" y="0" on="1"/>
        <pt x="200" y="600" on="1"/>
        <pt x="200" y="800" on="1"/>
        <pt x="800" y="1400" on="1"/>
      </contour>
    </TTGlyph>
    <TTGlyph name="guillemotright" xMin="200" yMin="0" xMax="1400" yMax="1400">
      <contour>
        <pt x="200" y="1400" on="1"/>
        <pt x="800" y="800" on="1"/>
        <pt x="800" y="600" on="1"/>
        <pt x="200" y="0" on="1"/>
        <pt x="200" y="400" on="1"/>
        <pt x="500" y="700" on="1"/>
        <pt x="200" y="1000" on="1"/>
      </contour>
      <contour>
        <pt x="800" y="1400" on="1"/>
        <pt x="1400" y="800" on="1"/>
        <pt x="1400" y="600" on="1"/>
        <pt x="800" y="0" on="1"/>
        <pt x="800" y="400" on="1"/>
        <pt x="1100" y="700" on="1"/>
        <pt x="800" y="1000" on="1"/>
      </contour>
    </TTGlyph>
    <TTGlyph name="guilsinglleft" xMin="400" yMin="0" xMax="1200" yMax="1400">
      <contour>
        <pt x="1200" y="1400" on="1"/>
        <pt x="1200" y="1200" on="1"/>
        <pt x="1200" y="1200" on="1"/>
        <pt x="800" y="800" on="1"/>
        <pt x="800" y="600" on="1"/>
        <pt x="1200" y="200" on="1"/>
        <pt x="1200" y="0" on="1"/>
        <pt x="1000" y="0" on="1"/>
        <pt x="400" y="600" on="1"/>
        <pt x="400" y="800" on="1"/>
        <pt x="1000" y="1400" on="1"/>
      </contour>
    </TTGlyph>
    <TTGlyph name="guilsinglright" xMin="400" yMin="0" xMax="1200" yMax="1400">
      <contour>
        <pt x="600" y="1400" on="1"/>
        <pt x="1200" y="800" on="1"/>
        <pt x="1200" y="600" on="1"/>
        <pt x="600" y="0" on="1"/>
        <pt x="400" y="0" on="1"/>
        <pt x="400" y="200" on="1"/>
        <pt x="800" y="600" on="1"/>
        <pt x="800" y="800" on="1"/>
        <pt x="400" y="1200" on="1"/>
        <pt x="400" y="1200" on="1"/>
        <pt x="400" y="1400" on="1"/>
      </contour>
    </TTGlyph>
    <TTGlyph name="h" xMin="200" yMin="0" xMax="1400" yMax="1400">
      <contour>
        <pt x="200" y="1400" on="1"/>
        <pt x="600" y="1400" on="1"/>
        <pt x="600" y="1000" on="1"/>
        <pt x="1200" y="1000" on="1"/>
        <pt x="1400" y="1000" on="0"/>
        <pt x="1400" y="800" on="1"/>
        <pt x="1400" y="0" on="1"/>
        <pt x="1000" y="0" on="1"/>
        <pt x="1000" y="800" on="1"/>
        <pt x="600" y="800" on="1"/>
        <pt x="600" y="0" on="1"/>
        <pt x="200" y="0" on="1"/>
      </contour>
    </TTGlyph>
    <TTGlyph name="hyphen" xMin="200" yMin="600" xMax="1400" yMax="800">
      <contour>
        <pt x="200" y="800" on="1"/>
        <pt x="1400" y="800" on="1"/>
        <pt x="1400" y="600" on="1"/>
        <pt x="200" y="600" on="1"/>
      </contour>
    </TTGlyph>
    <TTGlyph name="i" xMin="400" yMin="0" xMax="1200" yMax="1400">
      <contour>
        <pt x="600" y="800" on="1"/>
        <pt x="400" y="800" on="1"/>
        <pt x="400" y="1000" on="1"/>
        <pt x="1000" y="1000" on="1"/>
        <pt x="1000" y="200" on="1"/>
        <pt x="1200" y="200" on="1"/>
        <pt x="1200" y="0" on="1"/>
        <pt x="400" y="0" on="1"/>
        <pt x="400" y="200" on="1"/>
        <pt x="600" y="200" on="1"/>
      </contour>
      <contour>
        <pt x="600" y="1400" on="1"/>
        <pt x="1000" y="1400" on="1"/>
        <pt x="1000" y="1200" on="1"/>
        <pt x="600" y="1200" on="1"/>
      </contour>
    </TTGlyph>
    <TTGlyph name="iacute" xMin="400" yMin="0" xMax="1200" yMax="1400">
      <contour>
        <pt x="600" y="800" on="1"/>
        <pt x="400" y="800" on="1"/>
        <pt x="400" y="1000" on="1"/>
        <pt x="1000" y="1000" on="1"/>
        <pt x="1000" y="200" on="1"/>
        <pt x="1200" y="200" on="1"/>
        <pt x="1200" y="0" on="1"/>
        <pt x="400" y="0" on="1"/>
        <pt x="400" y="200" on="1"/>
        <pt x="600" y="200" on="1"/>
      </contour>
      <contour>
        <pt x="800" y="1200" on="1"/>
        <pt x="600" y="1200" on="1"/>
        <pt x="800" y="1400" on="1"/>
        <pt x="1000" y="1400" on="1"/>
      </contour>
    </TTGlyph>
    <TTGlyph name="icircumflex" xMin="400" yMin="0" xMax="1200" yMax="1400">
      <contour>
        <pt x="600" y="800" on="1"/>
        <pt x="400" y="800" on="1"/>
        <pt x="400" y="1000" on="1"/>
        <pt x="1000" y="1000" on="1"/>
        <pt x="1000" y="200" on="1"/>
        <pt x="1200" y="200" on="1"/>
        <pt x="1200" y="0" on="1"/>
        <pt x="400" y="0" on="1"/>
        <pt x="400" y="200" on="1"/>
        <pt x="600" y="200" on="1"/>
      </contour>
      <contour>
        <pt x="900" y="1200" on="1"/>
        <pt x="800" y="1300" on="1"/>
        <pt x="700" y="1200" on="1"/>
        <pt x="500" y="1200" on="1"/>
        <pt x="700" y="1400" on="1"/>
        <pt x="900" y="1400" on="1"/>
        <pt x="1100" y="1200" on="1"/>
      </contour>
    </TTGlyph>
    <TTGlyph name="idieresis" xMin="400" yMin="0" xMax="1200" yMax="1402">
      <contour>
        <pt x="600" y="800" on="1"/>
        <pt x="400" y="800" on="1"/>
        <pt x="400" y="1000" on="1"/>
        <pt x="1000" y="1000" on="1"/>
        <pt x="1000" y="200" on="1"/>
        <pt x="1200" y="200" on="1"/>
        <pt x="1200" y="0" on="1"/>
        <pt x="400" y="0" on="1"/>
        <pt x="400" y="200" on="1"/>
        <pt x="600" y="200" on="1"/>
      </contour>
      <contour>
        <pt x="508" y="1396" on="1"/>
        <pt x="704" y="1396" on="1"/>
        <pt x="704" y="1200" on="1"/>
        <pt x="508" y="1200" on="1"/>
      </contour>
      <contour>
        <pt x="904" y="1402" on="1"/>
        <pt x="1100" y="1402" on="1"/>
        <pt x="1100" y="1206" on="1"/>
        <pt x="904" y="1206" on="1"/>
      </contour>
    </TTGlyph>
    <TTGlyph name="igrave" xMin="400" yMin="0" xMax="1200" yMax="1400">
      <contour>
        <pt x="600" y="800" on="1"/>
        <pt x="400" y="800" on="1"/>
        <pt x="400" y="1000" on="1"/>
        <pt x="1000" y="1000" on="1"/>
        <pt x="1000" y="200" on="1"/>
        <pt x="1200" y="200" on="1"/>
        <pt x="1200" y="0" on="1"/>
        <pt x="400" y="0" on="1"/>
        <pt x="400" y="200" on="1"/>
        <pt x="600" y="200" on="1"/>
      </contour>
      <contour>
        <pt x="600" y="1400" on="1"/>
        <pt x="800" y="1400" on="1"/>
        <pt x="1000" y="1200" on="1"/>
        <pt x="800" y="1200" on="1"/>
      </contour>
    </TTGlyph>
    <TTGlyph name="j" xMin="400" yMin="-200" xMax="1200" yMax="1200">
      <contour>
        <pt x="800" y="1200" on="1"/>
        <pt x="1200" y="1200" on="1"/>
        <pt x="1200" y="1000" on="1"/>
        <pt x="800" y="1000" on="1"/>
      </contour>
      <contour>
        <pt x="800" y="800" on="1"/>
        <pt x="1200" y="800" on="1"/>
        <pt x="1200" y="0" on="1"/>
        <pt x="1200" y="-200" on="0"/>
        <pt x="1000" y="-200" on="1"/>
        <pt x="400" y="-200" on="1"/>
        <pt x="400" y="0" on="1"/>
        <pt x="800" y="0" on="1"/>
      </contour>
    </TTGlyph>
    <TTGlyph name="k" xMin="200" yMin="0" xMax="1400" yMax="1400">
      <contour>
        <pt x="200" y="1400" on="1"/>
        <pt x="600" y="1400" on="1"/>
        <pt x="600" y="600" on="1"/>
        <pt x="800" y="800" on="1"/>
        <pt x="1200" y="800" on="1"/>
        <pt x="1200" y="600" on="1"/>
        <pt x="1000" y="600" on="1"/>
        <pt x="900" y="500" on="1"/>
        <pt x="1200" y="200" on="1"/>
        <pt x="1400" y="0" on="1"/>
        <pt x="1000" y="0" on="1"/>
        <pt x="800" y="200" on="1"/>
        <pt x="600" y="400" on="1"/>
        <pt x="600" y="0" on="1"/>
        <pt x="200" y="0" on="1"/>
      </contour>
    </TTGlyph>
    <TTGlyph name="l" xMin="400" yMin="0" xMax="1200" yMax="1400">
      <contour>
        <pt x="600" y="1200" on="1"/>
        <pt x="400" y="1200" on="1"/>
        <pt x="400" y="1400" on="1"/>
        <pt x="1000" y="1400" on="1"/>
        <pt x="1000" y="200" on="1"/>
        <pt x="1200" y="200" on="1"/>
        <pt x="1200" y="0" on="1"/>
        <pt x="400" y="0" on="1"/>
        <pt x="400" y="200" on="1"/>
        <pt x="600" y="200" on="1"/>
      </contour>
    </TTGlyph>
    <TTGlyph name="less" xMin="200" yMin="0" xMax="1400" yMax="1400">
      <contour>
        <pt x="1400" y="1400" on="1"/>
        <pt x="1400" y="1200" on="1"/>
        <pt x="1100" y="1200" on="1"/>
        <pt x="600" y="700" on="1"/>
        <pt x="1100" y="200" on="1"/>
        <pt x="1400" y="200" on="1"/>
        <pt x="1400" y="0" on="1"/>
        <pt x="900" y="0" on="1"/>
        <pt x="200" y="700" on="1"/>
        <pt x="900" y="1400" on="1"/>
      </contour>
    </TTGlyph>
    <TTGlyph name="logicalnot" xMin="200" yMin="400" xMax="1400" yMax="800">
      <contour>
        <pt x="200" y="800" on="1"/>
        <pt x="1400" y="800" on="1"/>
        <pt x="1400" y="600" on="1"/>
        <pt x="1400" y="400" on="1"/>
        <pt x="1200" y="400" on="1"/>
        <pt x="1200" y="600" on="1"/>
        <pt x="200" y="600" on="1"/>
      </contour>
    </TTGlyph>
    <TTGlyph name="m" xMin="200" yMin="0" xMax="1600" yMax="1000">
      <contour>
        <pt x="200" y="1000" on="1"/>
        <pt x="400" y="1000" on="1"/>
        <pt x="600" y="1000" on="0"/>
        <pt x="600" y="800" on="1"/>
        <pt x="1000" y="800" on="1"/>
        <pt x="1000" y="1000" on="0"/>
        <pt x="1200" y="1000" on="1"/>
        <pt x="1400" y="1000" on="1"/>
        <pt x="1600" y="1000" on="0"/>
        <pt x="1600" y="800" on="1"/>
        <pt x="1600" y="0" on="1"/>
        <pt x="1200" y="0" on="1"/>
        <pt x="1200" y="400" on="1"/>
        <pt x="1000" y="400" on="0"/>
        <pt x="1000" y="200" on="1"/>
        <pt x="800" y="200" on="1"/>
        <pt x="800" y="400" on="0"/>
        <pt x="600" y="400" on="1"/>
        <pt x="600" y="0" on="1"/>
        <pt x="200" y="0" on="1"/>
      </contour>
    </TTGlyph>
    <TTGlyph name="macron" xMin="200" yMin="1600" xMax="1400" yMax="1800">
      <contour>
        <pt x="200" y="1800" on="1"/>
        <pt x="1400" y="1800" on="1"/>
        <pt x="1400" y="1600" on="1"/>
        <pt x="200" y="1600" on="1"/>
      </contour>
    </TTGlyph>
    <TTGlyph name="multiply" xMin="300" yMin="200" xMax="1300" yMax="1200">
      <contour>
        <pt x="300" y="400" on="1"/>
        <pt x="600" y="700" on="1"/>
        <pt x="300" y="1000" on="1"/>
        <pt x="500" y="1200" on="1"/>
        <pt x="800" y="900" on="1"/>
        <pt x="1100" y="1200" on="1"/>
        <pt x="1300" y="1000" on="1"/>
        <pt x="1000" y="700" on="1"/>
        <pt x="1300" y="400" on="1"/>
        <pt x="1100" y="200" on="1"/>
        <pt x="800" y="500" on="1"/>
        <pt x="500" y="200" on="1"/>
      </contour>
    </TTGlyph>
    <TTGlyph name="n" xMin="200" yMin="0" xMax="1400" yMax="1000">
      <contour>
        <pt x="200" y="1000" on="1"/>
        <pt x="1200" y="1000" on="1"/>
        <pt x="1400" y="1000" on="0"/>
        <pt x="1400" y="800" on="1"/>
        <pt x="1400" y="0" on="1"/>
        <pt x="1000" y="0" on="1"/>
        <pt x="1000" y="800" on="1"/>
        <pt x="600" y="800" on="1"/>
        <pt x="600" y="0" on="1"/>
        <pt x="200" y="0" on="1"/>
      </contour>
    </TTGlyph>
    <TTGlyph name="nine" xMin="200" yMin="0" xMax="1400" yMax="1400">
      <contour>
        <pt x="200" y="400" on="1"/>
        <pt x="600" y="400" on="1"/>
        <pt x="600" y="200" on="1"/>
        <pt x="1000" y="200" on="1"/>
        <pt x="1000" y="600" on="1"/>
        <pt x="400" y="600" on="1"/>
        <pt x="200" y="600" on="0"/>
        <pt x="200" y="800" on="1"/>
        <pt x="200" y="1200" on="1"/>
        <pt x="200" y="1400" on="0"/>
        <pt x="400" y="1400" on="1"/>
        <pt x="1200" y="1400" on="1"/>
        <pt x="1400" y="1400" on="0"/>
        <pt x="1400" y="1200" on="1"/>
        <pt x="1400" y="200" on="1"/>
        <pt x="1400" y="0" on="0"/>
        <pt x="1200" y="0" on="1"/>
        <pt x="400" y="0" on="1"/>
        <pt x="200" y="0" on="0"/>
        <pt x="200" y="200" on="1"/>
      </contour>
      <contour>
        <pt x="600" y="1200" on="1"/>
        <pt x="600" y="800" on="1"/>
        <pt x="1000" y="800" on="1"/>
        <pt x="1000" y="1200" on="1"/>
      </contour>
    </TTGlyph>
    <TTGlyph name="ntilde" xMin="200" yMin="0" xMax="1400" yMax="1400">
      <contour>
        <pt x="200" y="1000" on="1"/>
        <pt x="1200" y="1000" on="1"/>
        <pt x="1400" y="1000" on="0"/>
        <pt x="1400" y="800" on="1"/>
        <pt x="1400" y="0" on="1"/>
        <pt x="1000" y="0" on="1"/>
        <pt x="1000" y="800" on="1"/>
        <pt x="600" y="800" on="1"/>
        <pt x="600" y="0" on="1"/>
        <pt x="200" y="0" on="1"/>
      </contour>
      <contour>
        <pt x="900" y="1400" on="1"/>
        <pt x="1100" y="1200" on="1"/>
        <pt x="900" y="1200" on="1"/>
        <pt x="800" y="1300" on="1"/>
        <pt x="700" y="1200" on="1"/>
        <pt x="500" y="1200" on="1"/>
        <pt x="300" y="1400" on="1"/>
        <pt x="500" y="1400" on="1"/>
        <pt x="600" y="1300" on="1"/>
        <pt x="700" y="1400" on="1"/>
      </contour>
    </TTGlyph>
    <TTGlyph name="numbersign" xMin="0" yMin="0" xMax="1600" yMax="1400">
      <contour>
        <pt x="0" y="600" on="1"/>
        <pt x="200" y="600" on="1"/>
        <pt x="200" y="800" on="1"/>
        <pt x="0" y="800" on="1"/>
        <pt x="0" y="1000" on="1"/>
        <pt x="200" y="1000" on="1"/>
        <pt x="200" y="1400" on="1"/>
        <pt x="600" y="1400" on="1"/>
        <pt x="600" y="1000" on="1"/>
        <pt x="1000" y="1000" on="1"/>
        <pt x="1000" y="1400" on="1"/>
        <pt x="1400" y="1400" on="1"/>
        <pt x="1400" y="1000" on="1"/>
        <pt x="1600" y="1000" on="1"/>
        <pt x="1600" y="800" on="1"/>
        <pt x="1400" y="800" on="1"/>
        <pt x="1400" y="600" on="1"/>
        <pt x="1600" y="600" on="1"/>
        <pt x="1600" y="400" on="1"/>
        <pt x="1400" y="400" on="1"/>
        <pt x="1400" y="0" on="1"/>
        <pt x="1000" y="0" on="1"/>
        <pt x="1000" y="400" on="1"/>
        <pt x="600" y="400" on="1"/>
        <pt x="600" y="0" on="1"/>
        <pt x="200" y="0" on="1"/>
        <pt x="200" y="400" on="1"/>
        <pt x="0" y="400" on="1"/>
      </contour>
      <contour>
        <pt x="600" y="800" on="1"/>
        <pt x="600" y="600" on="1"/>
        <pt x="1000" y="600" on="1"/>
        <pt x="1000" y="800" on="1"/>
      </contour>
    </TTGlyph>
    <TTGlyph name="o" xMin="200" yMin="0" xMax="1400" yMax="1000">
      <contour>
        <pt x="200" y="800" on="1"/>
        <pt x="200" y="1000" on="0"/>
        <pt x="400" y="1000" on="1"/>
        <pt x="1200" y="1000" on="1"/>
        <pt x="1400" y="1000" on="0"/>
        <pt x="1400" y="800" on="1"/>
        <pt x="1400" y="200" on="1"/>
        <pt x="1400" y="0" on="0"/>
        <pt x="1200" y="0" on="1"/>
        <pt x="400" y="0" on="1"/>
        <pt x="200" y="0" on="0"/>
        <pt x="200" y="200" on="1"/>
      </contour>
      <contour>
        <pt x="600" y="800" on="1"/>
        <pt x="600" y="200" on="1"/>
        <pt x="1000" y="200" on="1"/>
        <pt x="1000" y="800" on="1"/>
      </contour>
    </TTGlyph>
    <TTGlyph name="oacute" xMin="200" yMin="0" xMax="1400" yMax="1400">
      <contour>
        <pt x="600" y="800" on="1"/>
        <pt x="600" y="200" on="1"/>
        <pt x="1000" y="200" on="1"/>
        <pt x="1000" y="800" on="1"/>
      </contour>
      <contour>
        <pt x="800" y="1200" on="1"/>
        <pt x="600" y="1200" on="1"/>
        <pt x="800" y="1400" on="1"/>
        <pt x="1000" y="1400" on="1"/>
      </contour>
      <contour>
        <pt x="200" y="800" on="1"/>
        <pt x="200" y="1000" on="0"/>
        <pt x="400" y="1000" on="1"/>
        <pt x="1200" y="1000" on="1"/>
        <pt x="1400" y="1000" on="0"/>
        <pt x="1400" y="800" on="1"/>
        <pt x="1400" y="200" on="1"/>
        <pt x="1400" y="0" on="0"/>
        <pt x="1200" y="0" on="1"/>
        <pt x="400" y="0" on="1"/>
        <pt x="200" y="0" on="0"/>
        <pt x="200" y="200" on="1"/>
      </contour>
    </TTGlyph>
    <TTGlyph name="ocircumflex" xMin="200" yMin="0" xMax="1400" yMax="1400">
      <contour>
        <pt x="600" y="800" on="1"/>
        <pt x="600" y="200" on="1"/>
        <pt x="1000" y="200" on="1"/>
        <pt x="1000" y="800" on="1"/>
      </contour>
      <contour>
        <pt x="900" y="1200" on="1"/>
        <pt x="800" y="1300" on="1"/>
        <pt x="700" y="1200" on="1"/>
        <pt x="500" y="1200" on="1"/>
        <pt x="700" y="1400" on="1"/>
        <pt x="900" y="1400" on="1"/>
        <pt x="1100" y="1200" on="1"/>
      </contour>
      <contour>
        <pt x="200" y="800" on="1"/>
        <pt x="200" y="1000" on="0"/>
        <pt x="400" y="1000" on="1"/>
        <pt x="1200" y="1000" on="1"/>
        <pt x="1400" y="1000" on="0"/>
        <pt x="1400" y="800" on="1"/>
        <pt x="1400" y="200" on="1"/>
        <pt x="1400" y="0" on="0"/>
        <pt x="1200" y="0" on="1"/>
        <pt x="400" y="0" on="1"/>
        <pt x="200" y="0" on="0"/>
        <pt x="200" y="200" on="1"/>
      </contour>
    </TTGlyph>
    <TTGlyph name="odieresis" xMin="200" yMin="0" xMax="1400" yMax="1402">
      <contour>
        <pt x="600" y="800" on="1"/>
        <pt x="600" y="200" on="1"/>
        <pt x="1000" y="200" on="1"/>
        <pt x="1000" y="800" on="1"/>
      </contour>
      <contour>
        <pt x="500" y="1396" on="1"/>
        <pt x="696" y="1396" on="1"/>
        <pt x="696" y="1200" on="1"/>
        <pt x="500" y="1200" on="1"/>
      </contour>
      <contour>
        <pt x="896" y="1402" on="1"/>
        <pt x="1092" y="1402" on="1"/>
        <pt x="1092" y="1206" on="1"/>
        <pt x="896" y="1206" on="1"/>
      </contour>
      <contour>
        <pt x="200" y="800" on="1"/>
        <pt x="200" y="1000" on="0"/>
        <pt x="400" y="1000" on="1"/>
        <pt x="1200" y="1000" on="1"/>
        <pt x="1400" y="1000" on="0"/>
        <pt x="1400" y="800" on="1"/>
        <pt x="1400" y="200" on="1"/>
        <pt x="1400" y="0" on="0"/>
        <pt x="1200" y="0" on="1"/>
        <pt x="400" y="0" on="1"/>
        <pt x="200" y="0" on="0"/>
        <pt x="200" y="200" on="1"/>
      </contour>
    </TTGlyph>
    <TTGlyph name="oe" xMin="200" yMin="0" xMax="1400" yMax="1000">
      <contour>
        <pt x="400" y="800" on="1"/>
        <pt x="400" y="200" on="1"/>
        <pt x="600" y="200" on="1"/>
        <pt x="600" y="800" on="1"/>
      </contour>
      <contour>
        <pt x="1000" y="800" on="1"/>
        <pt x="1000" y="600" on="1"/>
        <pt x="1200" y="600" on="1"/>
        <pt x="1200" y="800" on="1"/>
      </contour>
      <contour>
        <pt x="200" y="800" on="1"/>
        <pt x="200" y="1000" on="0"/>
        <pt x="400" y="1000" on="1"/>
        <pt x="1200" y="1000" on="1"/>
        <pt x="1400" y="1000" on="0"/>
        <pt x="1400" y="800" on="1"/>
        <pt x="1400" y="400" on="1"/>
        <pt x="1000" y="400" on="1"/>
        <pt x="1000" y="200" on="1"/>
        <pt x="1400" y="200" on="1"/>
        <pt x="1400" y="0" on="1"/>
        <pt x="400" y="0" on="1"/>
        <pt x="200" y="0" on="0"/>
        <pt x="200" y="200" on="1"/>
      </contour>
    </TTGlyph>
    <TTGlyph name="ogonek" xMin="200" yMin="-200" xMax="800" yMax="0">
      <contour>
        <pt x="200" y="0" on="1"/>
        <pt x="600" y="0" on="1"/>
        <pt x="800" y="-200" on="1"/>
        <pt x="400" y="-200" on="1"/>
      </contour>
    </TTGlyph>
    <TTGlyph name="ograve" xMin="200" yMin="0" xMax="1400" yMax="1400">
      <contour>
        <pt x="600" y="800" on="1"/>
        <pt x="600" y="200" on="1"/>
        <pt x="1000" y="200" on="1"/>
        <pt x="1000" y="800" on="1"/>
      </contour>
      <contour>
        <pt x="600" y="1400" on="1"/>
        <pt x="800" y="1400" on="1"/>
        <pt x="1000" y="1200" on="1"/>
        <pt x="800" y="1200" on="1"/>
      </contour>
      <contour>
        <pt x="200" y="800" on="1"/>
        <pt x="200" y="1000" on="0"/>
        <pt x="400" y="1000" on="1"/>
        <pt x="1200" y="1000" on="1"/>
        <pt x="1400" y="1000" on="0"/>
        <pt x="1400" y="800" on="1"/>
        <pt x="1400" y="200" on="1"/>
        <pt x="1400" y="0" on="0"/>
        <pt x="1200" y="0" on="1"/>
        <pt x="400" y="0" on="1"/>
        <pt x="200" y="0" on="0"/>
        <pt x="200" y="200" on="1"/>
      </contour>
    </TTGlyph>
    <TTGlyph name="one" xMin="200" yMin="-3" xMax="1400" yMax="1400">
      <contour>
        <pt x="600" y="800" on="1"/>
        <pt x="400" y="800" on="1"/>
        <pt x="400" y="1000" on="1"/>
        <pt x="600" y="1000" on="1"/>
        <pt x="600" y="1400" on="1"/>
        <pt x="1000" y="1400" on="1"/>
        <pt x="1000" y="200" on="1"/>
        <pt x="1400" y="200" on="1"/>
        <pt x="1400" y="0" on="1"/>
        <pt x="200" y="-3" on="1"/>
        <pt x="200" y="200" on="1"/>
        <pt x="600" y="200" on="1"/>
      </contour>
    </TTGlyph>
    <TTGlyph name="ordfeminine" xMin="200" yMin="400" xMax="1400" yMax="1800">
      <contour>
        <pt x="200" y="800" on="0"/>
        <pt x="200" y="1000" on="1"/>
        <pt x="200" y="1200" on="1"/>
        <pt x="200" y="1400" on="0"/>
        <pt x="400" y="1400" on="1"/>
        <pt x="1000" y="1400" on="1"/>
        <pt x="1000" y="1600" on="1"/>
        <pt x="400" y="1600" on="1"/>
        <pt x="400" y="1800" on="1"/>
        <pt x="1200" y="1800" on="1"/>
        <pt x="1400" y="1800" on="0"/>
        <pt x="1400" y="1600" on="1"/>
        <pt x="1400" y="800" on="1"/>
        <pt x="400" y="800" on="1"/>
      </contour>
      <contour>
        <pt x="600" y="1200" on="1"/>
        <pt x="600" y="1000" on="1"/>
        <pt x="1000" y="1000" on="1"/>
        <pt x="1000" y="1200" on="1"/>
      </contour>
      <contour>
        <pt x="1400" y="400" on="1"/>
        <pt x="200" y="400" on="1"/>
        <pt x="200" y="600" on="1"/>
        <pt x="1400" y="600" on="1"/>
      </contour>
    </TTGlyph>
    <TTGlyph name="ordmasculine" xMin="200" yMin="400" xMax="1400" yMax="1800">
      <contour>
        <pt x="200" y="1600" on="1"/>
        <pt x="200" y="1800" on="0"/>
        <pt x="400" y="1800" on="1"/>
        <pt x="1200" y="1800" on="1"/>
        <pt x="1400" y="1800" on="0"/>
        <pt x="1400" y="1600" on="1"/>
        <pt x="1400" y="1000" on="1"/>
        <pt x="1400" y="800" on="0"/>
        <pt x="1200" y="800" on="1"/>
        <pt x="400" y="800" on="1"/>
        <pt x="200" y="800" on="0"/>
        <pt x="200" y="1000" on="1"/>
      </contour>
      <contour>
        <pt x="600" y="1600" on="1"/>
        <pt x="600" y="1000" on="1"/>
        <pt x="1000" y="1000" on="1"/>
        <pt x="1000" y="1600" on="1"/>
      </contour>
      <contour>
        <pt x="200" y="600" on="1"/>
        <pt x="1400" y="600" on="1"/>
        <pt x="1400" y="400" on="1"/>
        <pt x="200" y="400" on="1"/>
      </contour>
    </TTGlyph>
    <TTGlyph name="oslash" xMin="200" yMin="0" xMax="1400" yMax="1000">
      <contour>
        <pt x="200" y="800" on="1"/>
        <pt x="200" y="1000" on="0"/>
        <pt x="400" y="1000" on="1"/>
        <pt x="1200" y="1000" on="1"/>
        <pt x="1400" y="1000" on="0"/>
        <pt x="1400" y="800" on="1"/>
        <pt x="1400" y="200" on="1"/>
        <pt x="1400" y="0" on="0"/>
        <pt x="1200" y="0" on="1"/>
        <pt x="400" y="0" on="1"/>
        <pt x="200" y="0" on="0"/>
        <pt x="200" y="200" on="1"/>
      </contour>
      <contour>
        <pt x="600" y="200" on="1"/>
        <pt x="1000" y="200" on="1"/>
        <pt x="1000" y="500" on="1"/>
      </contour>
      <contour>
        <pt x="600" y="800" on="1"/>
        <pt x="600" y="500" on="1"/>
        <pt x="1000" y="800" on="1"/>
      </contour>
    </TTGlyph>
    <TTGlyph name="otilde" xMin="200" yMin="0" xMax="1400" yMax="1400">
      <contour>
        <pt x="600" y="800" on="1"/>
        <pt x="600" y="200" on="1"/>
        <pt x="1000" y="200" on="1"/>
        <pt x="1000" y="800" on="1"/>
      </contour>
      <contour>
        <pt x="1000" y="1400" on="1"/>
        <pt x="1200" y="1200" on="1"/>
        <pt x="1000" y="1200" on="1"/>
        <pt x="900" y="1300" on="1"/>
        <pt x="800" y="1200" on="1"/>
        <pt x="600" y="1200" on="1"/>
        <pt x="400" y="1400" on="1"/>
        <pt x="600" y="1400" on="1"/>
        <pt x="700" y="1300" on="1"/>
        <pt x="800" y="1400" on="1"/>
      </contour>
      <contour>
        <pt x="200" y="800" on="1"/>
        <pt x="200" y="1000" on="0"/>
        <pt x="400" y="1000" on="1"/>
        <pt x="1200" y="1000" on="1"/>
        <pt x="1400" y="1000" on="0"/>
        <pt x="1400" y="800" on="1"/>
        <pt x="1400" y="200" on="1"/>
        <pt x="1400" y="0" on="0"/>
        <pt x="1200" y="0" on="1"/>
        <pt x="400" y="0" on="1"/>
        <pt x="200" y="0" on="0"/>
        <pt x="200" y="200" on="1"/>
      </contour>
    </TTGlyph>
    <TTGlyph name="p" xMin="200" yMin="-200" xMax="1400" yMax="1000">
      <contour>
        <pt x="200" y="1000" on="1"/>
        <pt x="1200" y="1000" on="1"/>
        <pt x="1400" y="1000" on="0"/>
        <pt x="1400" y="800" on="1"/>
        <pt x="1400" y="400" on="1"/>
        <pt x="1400" y="200" on="0"/>
        <pt x="1200" y="200" on="1"/>
        <pt x="600" y="200" on="1"/>
        <pt x="600" y="-200" on="1"/>
        <pt x="200" y="-200" on="1"/>
      </contour>
      <contour>
        <pt x="600" y="800" on="1"/>
        <pt x="600" y="400" on="1"/>
        <pt x="1000" y="400" on="1"/>
        <pt x="1000" y="800" on="1"/>
      </contour>
    </TTGlyph>
    <TTGlyph name="paragraph" xMin="200" yMin="0" xMax="1400" yMax="1400">
      <contour>
        <pt x="200" y="1200" on="1"/>
        <pt x="200" y="1400" on="0"/>
        <pt x="400" y="1400" on="1"/>
        <pt x="600" y="1400" on="1"/>
        <pt x="1000" y="1400" on="1"/>
        <pt x="1400" y="1400" on="1"/>
        <pt x="1400" y="1200" on="1"/>
        <pt x="1200" y="1200" on="1"/>
        <pt x="1200" y="0" on="1"/>
        <pt x="1000" y="0" on="1"/>
        <pt x="1000" y="1200" on="1"/>
        <pt x="800" y="1200" on="1"/>
        <pt x="800" y="0" on="1"/>
        <pt x="600" y="0" on="1"/>
        <pt x="600" y="800" on="1"/>
        <pt x="400" y="800" on="1"/>
        <pt x="200" y="800" on="0"/>
        <pt x="200" y="1000" on="1"/>
      </contour>
      <contour>
        <pt x="400" y="1200" on="1"/>
        <pt x="400" y="1000" on="1"/>
        <pt x="600" y="1000" on="1"/>
        <pt x="600" y="1200" on="1"/>
      </contour>
    </TTGlyph>
    <TTGlyph name="parenleft" xMin="400" yMin="0" xMax="1200" yMax="1400">
      <contour>
        <pt x="800" y="400" on="1"/>
        <pt x="800" y="200" on="0"/>
        <pt x="1000" y="200" on="1"/>
        <pt x="1200" y="200" on="1"/>
        <pt x="1200" y="0" on="1"/>
        <pt x="800" y="0" on="1"/>
        <pt x="600" y="0" on="0"/>
        <pt x="400" y="200" on="0"/>
        <pt x="400" y="400" on="1"/>
        <pt x="400" y="1000" on="1"/>
        <pt x="400" y="1200" on="0"/>
        <pt x="600" y="1400" on="0"/>
        <pt x="800" y="1400" on="1"/>
        <pt x="1200" y="1400" on="1"/>
        <pt x="1200" y="1200" on="1"/>
        <pt x="1000" y="1200" on="1"/>
        <pt x="800" y="1200" on="0"/>
        <pt x="800" y="1000" on="1"/>
      </contour>
    </TTGlyph>
    <TTGlyph name="parenright" xMin="400" yMin="0" xMax="1200" yMax="1400">
      <contour>
        <pt x="800" y="1000" on="1"/>
        <pt x="800" y="1200" on="0"/>
        <pt x="600" y="1200" on="1"/>
        <pt x="400" y="1200" on="1"/>
        <pt x="400" y="1400" on="1"/>
        <pt x="800" y="1400" on="1"/>
        <pt x="1000" y="1400" on="0"/>
        <pt x="1200" y="1200" on="0"/>
        <pt x="1200" y="1000" on="1"/>
        <pt x="1200" y="400" on="1"/>
        <pt x="1200" y="200" on="0"/>
        <pt x="1000" y="0" on="0"/>
        <pt x="800" y="0" on="1"/>
        <pt x="400" y="0" on="1"/>
        <pt x="400" y="200" on="1"/>
        <pt x="600" y="200" on="1"/>
        <pt x="800" y="200" on="0"/>
        <pt x="800" y="400" on="1"/>
      </contour>
    </TTGlyph>
    <TTGlyph name="percent" xMin="200" yMin="0" xMax="1400" yMax="1400">
      <contour>
        <pt x="200" y="400" on="1"/>
        <pt x="400" y="600" on="1"/>
        <pt x="600" y="800" on="1"/>
        <pt x="800" y="1000" on="1"/>
        <pt x="1000" y="1200" on="1"/>
        <pt x="1200" y="1400" on="1"/>
        <pt x="1400" y="1400" on="1"/>
        <pt x="1400" y="1000" on="1"/>
        <pt x="1200" y="800" on="1"/>
        <pt x="1000" y="600" on="1"/>
        <pt x="800" y="400" on="1"/>
        <pt x="600" y="200" on="1"/>
        <pt x="400" y="0" on="1"/>
        <pt x="200" y="0" on="1"/>
      </contour>
      <contour>
        <pt x="200" y="1400" on="1"/>
        <pt x="600" y="1400" on="1"/>
        <pt x="600" y="1000" on="1"/>
        <pt x="200" y="1000" on="1"/>
      </contour>
      <contour>
        <pt x="1000" y="400" on="1"/>
        <pt x="1400" y="400" on="1"/>
        <pt x="1400" y="0" on="1"/>
        <pt x="1000" y="0" on="1"/>
      </contour>
    </TTGlyph>
    <TTGlyph name="period" xMin="600" yMin="0" xMax="1000" yMax="400">
      <contour>
        <pt x="600" y="400" on="1"/>
        <pt x="1000" y="400" on="1"/>
        <pt x="1000" y="0" on="1"/>
        <pt x="600" y="0" on="1"/>
      </contour>
    </TTGlyph>
    <TTGlyph name="periodcentered" xMin="600" yMin="400" xMax="1000" yMax="800">
      <contour>
        <pt x="600" y="800" on="1"/>
        <pt x="1000" y="800" on="1"/>
        <pt x="1000" y="400" on="1"/>
        <pt x="600" y="400" on="1"/>
      </contour>
    </TTGlyph>
    <TTGlyph name="perthousand" xMin="2" yMin="0" xMax="1599" yMax="1400">
      <contour>
        <pt x="2" y="400" on="1"/>
        <pt x="1002" y="1400" on="1"/>
        <pt x="1402" y="1400" on="1"/>
        <pt x="454" y="457" on="1"/>
        <pt x="2" y="0" on="1"/>
      </contour>
      <contour>
        <pt x="2" y="1400" on="1"/>
        <pt x="402" y="1400" on="1"/>
        <pt x="402" y="1000" on="1"/>
        <pt x="2" y="1000" on="1"/>
      </contour>
      <contour>
        <pt x="602" y="400" on="1"/>
        <pt x="1002" y="400" on="1"/>
        <pt x="1002" y="0" on="1"/>
        <pt x="602" y="0" on="1"/>
      </contour>
      <contour>
        <pt x="1202" y="400" on="1"/>
        <pt x="1599" y="400" on="1"/>
        <pt x="1599" y="0" on="1"/>
        <pt x="1202" y="0" on="1"/>
      </contour>
    </TTGlyph>
    <TTGlyph name="plus" xMin="200" yMin="200" xMax="1400" yMax="1200">
      <contour>
        <pt x="200" y="800" on="1"/>
        <pt x="600" y="800" on="1"/>
        <pt x="600" y="1200" on="1"/>
        <pt x="1000" y="1200" on="1"/>
        <pt x="1000" y="800" on="1"/>
        <pt x="1400" y="800" on="1"/>
        <pt x="1400" y="600" on="1"/>
        <pt x="1000" y="600" on="1"/>
        <pt x="1000" y="200" on="1"/>
        <pt x="600" y="200" on="1"/>
        <pt x="600" y="600" on="1"/>
        <pt x="200" y="600" on="1"/>
      </contour>
    </TTGlyph>
    <TTGlyph name="q" xMin="200" yMin="-200" xMax="1400" yMax="1000">
      <contour>
        <pt x="1400" y="-200" on="1"/>
        <pt x="1000" y="-200" on="1"/>
        <pt x="1000" y="200" on="1"/>
        <pt x="400" y="200" on="1"/>
        <pt x="200" y="200" on="0"/>
        <pt x="200" y="400" on="1"/>
        <pt x="200" y="800" on="1"/>
        <pt x="200" y="1000" on="0"/>
        <pt x="400" y="1000" on="1"/>
        <pt x="1400" y="1000" on="1"/>
      </contour>
      <contour>
        <pt x="600" y="800" on="1"/>
        <pt x="600" y="400" on="1"/>
        <pt x="1000" y="400" on="1"/>
        <pt x="1000" y="800" on="1"/>
      </contour>
    </TTGlyph>
    <TTGlyph name="question" xMin="200" yMin="0" xMax="1400" yMax="1400">
      <contour>
        <pt x="200" y="1200" on="1"/>
        <pt x="200" y="1400" on="0"/>
        <pt x="400" y="1400" on="1"/>
        <pt x="1200" y="1400" on="1"/>
        <pt x="1400" y="1400" on="0"/>
        <pt x="1400" y="1200" on="1"/>
        <pt x="1400" y="800" on="1"/>
        <pt x="1400" y="600" on="0"/>
        <pt x="1200" y="600" on="1"/>
        <pt x="1000" y="600" on="1"/>
        <pt x="1000" y="400" on="1"/>
        <pt x="600" y="400" on="1"/>
        <pt x="600" y="600" on="1"/>
        <pt x="600" y="800" on="0"/>
        <pt x="800" y="800" on="1"/>
        <pt x="1000" y="800" on="1"/>
        <pt x="1000" y="1200" on="1"/>
        <pt x="600" y="1200" on="1"/>
        <pt x="600" y="1000" on="1"/>
        <pt x="200" y="1000" on="1"/>
      </contour>
      <contour>
        <pt x="600" y="200" on="1"/>
        <pt x="1000" y="200" on="1"/>
        <pt x="1000" y="0" on="1"/>
        <pt x="600" y="0" on="1"/>
      </contour>
    </TTGlyph>
    <TTGlyph name="questiondown" xMin="200" yMin="0" xMax="1400" yMax="1400">
      <contour>
        <pt x="1400" y="200" on="1"/>
        <pt x="1400" y="0" on="0"/>
        <pt x="1200" y="0" on="1"/>
        <pt x="400" y="0" on="1"/>
        <pt x="200" y="0" on="0"/>
        <pt x="200" y="200" on="1"/>
        <pt x="200" y="600" on="1"/>
        <pt x="200" y="800" on="0"/>
        <pt x="400" y="800" on="1"/>
        <pt x="600" y="800" on="1"/>
        <pt x="600" y="1000" on="1"/>
        <pt x="1000" y="1000" on="1"/>
        <pt x="1000" y="800" on="1"/>
        <pt x="1000" y="600" on="0"/>
        <pt x="800" y="600" on="1"/>
        <pt x="600" y="600" on="1"/>
        <pt x="600" y="200" on="1"/>
        <pt x="1000" y="200" on="1"/>
        <pt x="1000" y="400" on="1"/>
        <pt x="1400" y="400" on="1"/>
      </contour>
      <contour>
        <pt x="1000" y="1200" on="1"/>
        <pt x="600" y="1200" on="1"/>
        <pt x="600" y="1400" on="1"/>
        <pt x="1000" y="1400" on="1"/>
      </contour>
    </TTGlyph>
    <TTGlyph name="quotedbl" xMin="200" yMin="1000" xMax="1400" yMax="1400">
      <contour>
        <pt x="1000" y="1400" on="1"/>
        <pt x="1400" y="1400" on="1"/>
        <pt x="1400" y="1000" on="1"/>
        <pt x="1000" y="1000" on="1"/>
      </contour>
      <contour>
        <pt x="200" y="1400" on="1"/>
        <pt x="600" y="1400" on="1"/>
        <pt x="600" y="1000" on="1"/>
        <pt x="200" y="1000" on="1"/>
      </contour>
    </TTGlyph>
    <TTGlyph name="quotedblbase" xMin="0" yMin="-200" xMax="1400" yMax="400">
      <contour>
        <pt x="1000" y="400" on="1"/>
        <pt x="1400" y="400" on="1"/>
        <pt x="1400" y="0" on="1"/>
        <pt x="1400" y="-200" on="0"/>
        <pt x="1200" y="-200" on="1"/>
        <pt x="800" y="-200" on="1"/>
        <pt x="800" y="0" on="1"/>
        <pt x="1000" y="0" on="1"/>
      </contour>
      <contour>
        <pt x="200" y="400" on="1"/>
        <pt x="600" y="400" on="1"/>
        <pt x="600" y="0" on="1"/>
        <pt x="600" y="-200" on="0"/>
        <pt x="400" y="-200" on="1"/>
        <pt x="0" y="-200" on="1"/>
        <pt x="0" y="0" on="1"/>
        <pt x="200" y="0" on="1"/>
      </contour>
    </TTGlyph>
    <TTGlyph name="quotedblleft" xMin="200" yMin="800" xMax="1600" yMax="1400">
      <contour>
        <pt x="600" y="800" on="1"/>
        <pt x="200" y="800" on="1"/>
        <pt x="200" y="1200" on="1"/>
        <pt x="200" y="1400" on="0"/>
        <pt x="400" y="1400" on="1"/>
        <pt x="800" y="1400" on="1"/>
        <pt x="800" y="1200" on="1"/>
        <pt x="600" y="1200" on="1"/>
      </contour>
      <contour>
        <pt x="1400" y="800" on="1"/>
        <pt x="1000" y="800" on="1"/>
        <pt x="1000" y="1200" on="1"/>
        <pt x="1000" y="1400" on="0"/>
        <pt x="1200" y="1400" on="1"/>
        <pt x="1600" y="1400" on="1"/>
        <pt x="1600" y="1200" on="1"/>
        <pt x="1400" y="1200" on="1"/>
      </contour>
    </TTGlyph>
    <TTGlyph name="quotedblright" xMin="0" yMin="800" xMax="1400" yMax="1400">
      <contour>
        <pt x="1000" y="1400" on="1"/>
        <pt x="1400" y="1400" on="1"/>
        <pt x="1400" y="1000" on="1"/>
        <pt x="1400" y="800" on="0"/>
        <pt x="1200" y="800" on="1"/>
        <pt x="800" y="800" on="1"/>
        <pt x="800" y="1000" on="1"/>
        <pt x="1000" y="1000" on="1"/>
      </contour>
      <contour>
        <pt x="200" y="1400" on="1"/>
        <pt x="600" y="1400" on="1"/>
        <pt x="600" y="1000" on="1"/>
        <pt x="600" y="800" on="0"/>
        <pt x="400" y="800" on="1"/>
        <pt x="0" y="800" on="1"/>
        <pt x="0" y="1000" on="1"/>
        <pt x="200" y="1000" on="1"/>
      </contour>
    </TTGlyph>
    <TTGlyph name="quoteleft" xMin="800" yMin="800" xMax="1400" yMax="1400">
      <contour>
        <pt x="1200" y="800" on="1"/>
        <pt x="800" y="800" on="1"/>
        <pt x="800" y="1200" on="1"/>
        <pt x="800" y="1400" on="0"/>
        <pt x="1000" y="1400" on="1"/>
        <pt x="1400" y="1400" on="1"/>
        <pt x="1400" y="1200" on="1"/>
        <pt x="1200" y="1200" on="1"/>
      </contour>
    </TTGlyph>
    <TTGlyph name="quoteright" xMin="200" yMin="800" xMax="800" yMax="1400">
      <contour>
        <pt x="400" y="1400" on="1"/>
        <pt x="800" y="1400" on="1"/>
        <pt x="800" y="1000" on="1"/>
        <pt x="800" y="800" on="0"/>
        <pt x="600" y="800" on="1"/>
        <pt x="200" y="800" on="1"/>
        <pt x="200" y="1000" on="1"/>
        <pt x="400" y="1000" on="1"/>
      </contour>
    </TTGlyph>
    <TTGlyph name="quotesingle" xMin="600" yMin="800" xMax="1400" yMax="1400">
      <contour>
        <pt x="1400" y="1400" on="1"/>
        <pt x="1400" y="1200" on="1"/>
        <pt x="1200" y="1000" on="1"/>
        <pt x="1000" y="800" on="1"/>
        <pt x="600" y="800" on="1"/>
        <pt x="600" y="1000" on="1"/>
        <pt x="800" y="1200" on="1"/>
        <pt x="1000" y="1400" on="1"/>
      </contour>
    </TTGlyph>
    <TTGlyph name="r" xMin="200" yMin="0" xMax="1400" yMax="1000">
      <contour>
        <pt x="200" y="1000" on="1"/>
        <pt x="1200" y="1000" on="1"/>
        <pt x="1400" y="1000" on="0"/>
        <pt x="1400" y="800" on="1"/>
        <pt x="1400" y="600" on="1"/>
        <pt x="1000" y="600" on="1"/>
        <pt x="1000" y="800" on="1"/>
        <pt x="600" y="800" on="1"/>
        <pt x="600" y="0" on="1"/>
        <pt x="200" y="0" on="1"/>
      </contour>
    </TTGlyph>
    <TTGlyph name="registered" xMin="0" yMin="0" xMax="1200" yMax="1400">
      <contour>
        <pt x="400" y="800" on="1"/>
        <pt x="400" y="1000" on="0"/>
        <pt x="600" y="1000" on="1"/>
        <pt x="800" y="1000" on="1"/>
        <pt x="800" y="800" on="1"/>
        <pt x="600" y="800" on="1"/>
        <pt x="600" y="800" on="1"/>
        <pt x="600" y="400" on="1"/>
        <pt x="400" y="400" on="1"/>
      </contour>
      <contour>
        <pt x="200" y="1200" on="1"/>
        <pt x="200" y="200" on="1"/>
        <pt x="1000" y="200" on="1"/>
        <pt x="1000" y="1200" on="1"/>
      </contour>
      <contour>
        <pt x="202" y="1400" on="1"/>
        <pt x="1000" y="1400" on="1"/>
        <pt x="1200" y="1400" on="0"/>
        <pt x="1200" y="1200" on="1"/>
        <pt x="1200" y="200" on="1"/>
        <pt x="1200" y="0" on="0"/>
        <pt x="1000" y="0" on="1"/>
        <pt x="200" y="0" on="1"/>
        <pt x="0" y="0" on="0"/>
        <pt x="0" y="200" on="1"/>
        <pt x="2" y="1200" on="1"/>
        <pt x="0" y="1400" on="0"/>
      </contour>
    </TTGlyph>
    <TTGlyph name="s" xMin="200" yMin="0" xMax="1400" yMax="1000">
      <contour>
        <pt x="200" y="200" on="1"/>
        <pt x="1000" y="200" on="1"/>
        <pt x="1000" y="400" on="1"/>
        <pt x="400" y="400" on="1"/>
        <pt x="200" y="400" on="0"/>
        <pt x="200" y="600" on="1"/>
        <pt x="200" y="800" on="1"/>
        <pt x="200" y="1000" on="0"/>
        <pt x="400" y="1000" on="1"/>
        <pt x="1400" y="1000" on="1"/>
        <pt x="1400" y="800" on="1"/>
        <pt x="600" y="800" on="1"/>
        <pt x="600" y="600" on="1"/>
        <pt x="1200" y="600" on="1"/>
        <pt x="1400" y="600" on="0"/>
        <pt x="1400" y="400" on="1"/>
        <pt x="1400" y="200" on="1"/>
        <pt x="1400" y="0" on="0"/>
        <pt x="1200" y="0" on="1"/>
        <pt x="200" y="0" on="1"/>
      </contour>
    </TTGlyph>
    <TTGlyph name="semicolon" xMin="400" yMin="-200" xMax="1000" yMax="1400">
      <contour>
        <pt x="400" y="-200" on="1"/>
        <pt x="400" y="0" on="1"/>
        <pt x="600" y="0" on="1"/>
        <pt x="600" y="400" on="1"/>
        <pt x="1000" y="400" on="1"/>
        <pt x="1000" y="0" on="1"/>
        <pt x="1000" y="-200" on="0"/>
        <pt x="800" y="-200" on="1"/>
      </contour>
      <contour>
        <pt x="600" y="1400" on="1"/>
        <pt x="1000" y="1400" on="1"/>
        <pt x="1000" y="1000" on="1"/>
        <pt x="600" y="1000" on="1"/>
      </contour>
    </TTGlyph>
    <TTGlyph name="seven" xMin="200" yMin="0" xMax="1400" yMax="1400">
      <contour>
        <pt x="200" y="1400" on="1"/>
        <pt x="1400" y="1400" on="1"/>
        <pt x="1400" y="1000" on="1"/>
        <pt x="1000" y="600" on="1"/>
        <pt x="1000" y="0" on="1"/>
        <pt x="600" y="0" on="1"/>
        <pt x="600" y="600" on="1"/>
        <pt x="1000" y="1000" on="1"/>
        <pt x="1000" y="1200" on="1"/>
        <pt x="600" y="1200" on="1"/>
        <pt x="600" y="1000" on="1"/>
        <pt x="200" y="1000" on="1"/>
      </contour>
    </TTGlyph>
    <TTGlyph name="six" xMin="200" yMin="0" xMax="1400" yMax="1400">
      <contour>
        <pt x="200" y="1200" on="1"/>
        <pt x="200" y="1400" on="0"/>
        <pt x="400" y="1400" on="1"/>
        <pt x="1200" y="1400" on="1"/>
        <pt x="1400" y="1400" on="0"/>
        <pt x="1400" y="1200" on="1"/>
        <pt x="1400" y="1000" on="1"/>
        <pt x="1000" y="1000" on="1"/>
        <pt x="1000" y="1200" on="1"/>
        <pt x="600" y="1200" on="1"/>
        <pt x="600" y="800" on="1"/>
        <pt x="1200" y="800" on="1"/>
        <pt x="1400" y="800" on="0"/>
        <pt x="1400" y="600" on="1"/>
        <pt x="1400" y="200" on="1"/>
        <pt x="1400" y="0" on="0"/>
        <pt x="1200" y="0" on="1"/>
        <pt x="400" y="0" on="1"/>
        <pt x="200" y="0" on="0"/>
        <pt x="200" y="200" on="1"/>
      </contour>
      <contour>
        <pt x="600" y="600" on="1"/>
        <pt x="600" y="200" on="1"/>
        <pt x="1000" y="200" on="1"/>
        <pt x="1000" y="600" on="1"/>
      </contour>
    </TTGlyph>
    <TTGlyph name="slash" xMin="200" yMin="0" xMax="1600" yMax="1200">
      <contour>
        <pt x="200" y="200" on="1"/>
        <pt x="400" y="400" on="1"/>
        <pt x="600" y="600" on="1"/>
        <pt x="800" y="800" on="1"/>
        <pt x="1000" y="1000" on="1"/>
        <pt x="1200" y="1200" on="1"/>
        <pt x="1600" y="1200" on="1"/>
        <pt x="1600" y="1000" on="1"/>
        <pt x="1400" y="800" on="1"/>
        <pt x="1200" y="600" on="1"/>
        <pt x="1000" y="400" on="1"/>
        <pt x="800" y="200" on="1"/>
        <pt x="600" y="0" on="1"/>
        <pt x="200" y="0" on="1"/>
      </contour>
    </TTGlyph>
    <TTGlyph name="sterling" xMin="200" yMin="0" xMax="1600" yMax="1400">
      <contour>
        <pt x="200" y="200" on="1"/>
        <pt x="600" y="600" on="1"/>
        <pt x="400" y="600" on="1"/>
        <pt x="400" y="800" on="1"/>
        <pt x="600" y="800" on="1"/>
        <pt x="600" y="1000" on="1"/>
        <pt x="600" y="1200" on="0"/>
        <pt x="800" y="1400" on="0"/>
        <pt x="1000" y="1400" on="1"/>
        <pt x="1400" y="1400" on="1"/>
        <pt x="1600" y="1400" on="0"/>
        <pt x="1600" y="1200" on="1"/>
        <pt x="1600" y="1000" on="1"/>
        <pt x="1400" y="1000" on="1"/>
        <pt x="1400" y="1200" on="1"/>
        <pt x="1000" y="1200" on="1"/>
        <pt x="1000" y="800" on="1"/>
        <pt x="1400" y="800" on="1"/>
        <pt x="1400" y="600" on="1"/>
        <pt x="1000" y="600" on="1"/>
        <pt x="800" y="400" on="1"/>
        <pt x="800" y="200" on="1"/>
        <pt x="1400" y="200" on="1"/>
        <pt x="1400" y="400" on="1"/>
        <pt x="1600" y="400" on="1"/>
        <pt x="1600" y="200" on="1"/>
        <pt x="1600" y="0" on="0"/>
        <pt x="1400" y="0" on="1"/>
        <pt x="200" y="0" on="1"/>
      </contour>
    </TTGlyph>
    <TTGlyph name="t" xMin="200" yMin="0" xMax="1400" yMax="1200">
      <contour>
        <pt x="200" y="1000" on="1"/>
        <pt x="600" y="1000" on="1"/>
        <pt x="600" y="1200" on="1"/>
        <pt x="1000" y="1200" on="1"/>
        <pt x="1000" y="1000" on="1"/>
        <pt x="1400" y="1000" on="1"/>
        <pt x="1400" y="800" on="1"/>
        <pt x="1000" y="800" on="1"/>
        <pt x="1000" y="200" on="1"/>
        <pt x="1400" y="200" on="1"/>
        <pt x="1400" y="0" on="1"/>
        <pt x="800" y="0" on="1"/>
        <pt x="600" y="0" on="0"/>
        <pt x="600" y="200" on="1"/>
        <pt x="600" y="800" on="1"/>
        <pt x="200" y="800" on="1"/>
      </contour>
    </TTGlyph>
    <TTGlyph name="three" xMin="200" yMin="0" xMax="1400" yMax="1400">
      <contour>
        <pt x="200" y="400" on="1"/>
        <pt x="600" y="400" on="1"/>
        <pt x="600" y="200" on="1"/>
        <pt x="1000" y="200" on="1"/>
        <pt x="1000" y="600" on="1"/>
        <pt x="600" y="600" on="1"/>
        <pt x="600" y="800" on="1"/>
        <pt x="1000" y="800" on="1"/>
        <pt x="1000" y="1200" on="1"/>
        <pt x="600" y="1200" on="1"/>
        <pt x="600" y="1000" on="1"/>
        <pt x="200" y="1000" on="1"/>
        <pt x="200" y="1200" on="1"/>
        <pt x="200" y="1400" on="0"/>
        <pt x="400" y="1400" on="1"/>
        <pt x="1200" y="1400" on="1"/>
        <pt x="1400" y="1400" on="0"/>
        <pt x="1400" y="1200" on="1"/>
        <pt x="1400" y="900" on="1"/>
        <pt x="1400" y="700" on="0"/>
        <pt x="1200" y="700" on="1"/>
        <pt x="1400" y="700" on="0"/>
        <pt x="1400" y="500" on="1"/>
        <pt x="1400" y="200" on="1"/>
        <pt x="1400" y="0" on="0"/>
        <pt x="1200" y="0" on="1"/>
        <pt x="400" y="0" on="1"/>
        <pt x="200" y="0" on="0"/>
        <pt x="200" y="200" on="1"/>
      </contour>
    </TTGlyph>
    <TTGlyph name="trademark" xMin="-2" yMin="800" xMax="1398" yMax="1800">
      <contour>
        <pt x="-2" y="1600" on="1"/>
        <pt x="-2" y="1800" on="1"/>
        <pt x="598" y="1800" on="1"/>
        <pt x="598" y="1600" on="1"/>
        <pt x="398" y="1600" on="1"/>
        <pt x="398" y="800" on="1"/>
        <pt x="198" y="800" on="1"/>
        <pt x="198" y="1600" on="1"/>
      </contour>
      <contour>
        <pt x="798" y="1800" on="1"/>
        <pt x="998" y="1800" on="1"/>
        <pt x="998" y="1700" on="1"/>
        <pt x="1098" y="1500" on="1"/>
        <pt x="1198" y="1700" on="1"/>
        <pt x="1198" y="1800" on="1"/>
        <pt x="1398" y="1800" on="1"/>
        <pt x="1398" y="1600" on="1"/>
        <pt x="1398" y="800" on="1"/>
        <pt x="1198" y="800" on="1"/>
        <pt x="1198" y="1400" on="1"/>
        <pt x="1098" y="1200" on="1"/>
        <pt x="998" y="1400" on="1"/>
        <pt x="998" y="800" on="1"/>
        <pt x="798" y="800" on="1"/>
      </contour>
    </TTGlyph>
    <TTGlyph name="two" xMin="200" yMin="0" xMax="1400" yMax="1400">
      <contour>
        <pt x="1200" y="1400" on="1"/>
        <pt x="1400" y="1400" on="0"/>
        <pt x="1400" y="1200" on="1"/>
        <pt x="1400" y="800" on="1"/>
        <pt x="1400" y="600" on="0"/>
        <pt x="1200" y="600" on="1"/>
        <pt x="800" y="600" on="1"/>
        <pt x="600" y="600" on="0"/>
        <pt x="600" y="400" on="1"/>
        <pt x="600" y="200" on="1"/>
        <pt x="1400" y="200" on="1"/>
        <pt x="1400" y="0" on="1"/>
        <pt x="200" y="0" on="1"/>
        <pt x="200" y="400" on="1"/>
        <pt x="200" y="600" on="0"/>
        <pt x="400" y="800" on="0"/>
        <pt x="600" y="800" on="1"/>
        <pt x="1000" y="800" on="1"/>
        <pt x="1000" y="1200" on="1"/>
        <pt x="600" y="1200" on="1"/>
        <pt x="600" y="1000" on="1"/>
        <pt x="200" y="1000" on="1"/>
        <pt x="200" y="1200" on="1"/>
        <pt x="200" y="1400" on="0"/>
        <pt x="400" y="1400" on="1"/>
      </contour>
    </TTGlyph>
    <TTGlyph name="u" xMin="200" yMin="0" xMax="1400" yMax="1000">
      <contour>
        <pt x="200" y="1000" on="1"/>
        <pt x="600" y="1000" on="1"/>
        <pt x="600" y="200" on="1"/>
        <pt x="1000" y="200" on="1"/>
        <pt x="1000" y="1000" on="1"/>
        <pt x="1400" y="1000" on="1"/>
        <pt x="1400" y="0" on="1"/>
        <pt x="400" y="0" on="1"/>
        <pt x="200" y="0" on="0"/>
        <pt x="200" y="200" on="1"/>
      </contour>
    </TTGlyph>
</ttFont>
